Защищая Джейкоба / Defending Jacob (2020) WEB-DL (сезон 1, серии 1-8 из 8) LostFilm скачать торрент

Reply to topic

DL-List and Torrent activity [Update пиров]
Size:  11.36 GB   |    Registered:  1 month 1 day   |    Completed:  0 times

Seeder not seen: Never

 
 
 
 
 
Author Message

Captain ®

Longevity: 6 years 6 months

Posts: 2563

Location: Earth


Post 24-Sep-2020 11:40

[Quote]

Защищая Джейкоба / Defending Jacob «Family is Unconditional»- Производство: США / Anonymous Content, Paramount Television
Жанр: триллер, драма, криминал, детектив
Режиссер: Мортен Тильдум
Актеры: Крис Эванс, Мишель Докери, Джейден Мартелл, Черри Джонс, Пабло Шрайбер, Бетти Гэбриел, Сакина Джэффри, Дэниэл Хеншэлл, Ben Taylor, Джордан Алекса Дэвис
Описание:
В одном из районов Бостона произошло жестокое убийство школьника. Подозревается друг и одноклассник погибшего Джейкоб, сын помощника окружного прокурора. Все улики указывают на Джейкоба, но отец отказывается верить в виновность сына и должен выбрать, что для него важнее — правосудие или семья.

Продолжительность: ~00:50:00 серия
Качество видео: WEB-DL
Перевод: Многоголосый профессиональный (LostFilm)
Субтитры: Русские, английские, украинские
Видео: AVC/H.264, 1358x678, ~2840 kbps
Аудио 1: AC3, 2 ch, 384 kbps, русский
Аудио 2: E-AC3, 6 ch, 768 kbps, английский

MediaInfo:

Общее
Уникальный идентификатор : 252170113126972787363751055364264520762 (0xBDB6327B605FA2A29955D1ED5E4F6C3A)
Полное имя : Defending.Jacob.S01E01.LF.WEB-DL.720p\Defending.Jacob.S01E01.WEB-DL.720p.mkv
Формат : Matroska
Версия формата : Version 4
Размер файла : 1,27 Гбайт
Продолжительность : 45 м. 22 с.
Общий поток : 4001 Кбит/сек
Дата кодирования : UTC 2020-09-01 06:26:11
Программа кодирования : mkvmerge v7.9.0 ('Birds') 64bit
Библиотека кодирования : libebml v1.3.1 + libmatroska v1.4.2
Видео
Идентификатор : 1
Формат : AVC
Формат/Информация : Advanced Video Codec
Профиль формата : [email protected]
Настройки формата : CABAC / 5 Ref Frames
Параметр CABAC формата : Да
Параметр RefFrames формата : 5 кадров
Идентификатор кодека : V_MPEG4/ISO/AVC
Продолжительность : 45 м. 22 с.
Битрейт : 2846 Кбит/сек
Ширина : 1358 пикселей
Высота : 678 пикселей
Соотношение сторон : 2,003
Режим частоты кадров : Постоянный
Частота кадров : 23,976 (24000/1001) кадра/сек
Цветовое пространство : YUV
Субдискретизация насыщенности : 4:2:0
Битовая глубина : 8 бит
Тип развёртки : Прогрессивная
Бит/(Пиксели*Кадры) : 0.129
Размер потока : 924 Мбайт (71%)
Язык : English
Default : Да
Forced : Нет
Цветовой диапазон : Limited
Основные цвета : BT.709
Характеристики трансфера : BT.709
Коэффициенты матрицы : BT.709
Аудио #1
Идентификатор : 2
Формат : AC-3
Формат/Информация : Audio Coding 3
Коммерческое название : Dolby Digital
Идентификатор кодека : A_AC3
Продолжительность : 45 м. 22 с.
Вид битрейта : Постоянный
Битрейт : 384 Кбит/сек
Каналы : 2 канала
ChannelLayout : L R
Частота : 48,0 КГц
Частота кадров : 31,250 кадров/сек (1536 SPF)
Метод сжатия : С потерями
Размер потока : 125 Мбайт (10%)
Заголовок : LostFilm
Язык : Russian
ServiceKind/String : Complete Main
Default : Да
Forced : Нет
Аудио #2
Идентификатор : 3
Формат : E-AC-3 JOC
Формат/Информация : Enhanced AC-3 with Joint Object Coding
Коммерческое название : Dolby Digital Plus with Dolby Atmos
Идентификатор кодека : A_EAC3
Продолжительность : 45 м. 22 с.
Вид битрейта : Постоянный
Битрейт : 768 Кбит/сек
Каналы : 6 каналов
ChannelLayout : L R C LFE Ls Rs
Частота : 48,0 КГц
Частота кадров : 31,250 кадров/сек (1536 SPF)
Метод сжатия : С потерями
Размер потока : 249 Мбайт (19%)
Заголовок : original
Язык : English
ServiceKind/String : Complete Main
Default : Нет
Forced : Нет
ComplexityIndex : 16
NumberOfDynamicObjects : 15
BedChannelCount/String : 1 канал
BedChannelConfiguration : LFE
Текст #1
Идентификатор : 4
Формат : UTF-8
Идентификатор кодека : S_TEXT/UTF8
Идентификатор кодека/Информация : UTF-8 Plain Text
Продолжительность : 44 м. 14 с.
Битрейт : 113 бит/сек
ElementCount : 665
Размер потока : 36,8 Кбайт (0%)
Язык : Russian
Default : Нет
Forced : Нет
Текст #2
Идентификатор : 5
Формат : UTF-8
Идентификатор кодека : S_TEXT/UTF8
Идентификатор кодека/Информация : UTF-8 Plain Text
Продолжительность : 39 м. 21 с.
Битрейт : 79 бит/сек
ElementCount : 630
Размер потока : 22,9 Кбайт (0%)
Язык : English
Default : Нет
Forced : Нет
Текст #3
Идентификатор : 6
Формат : UTF-8
Идентификатор кодека : S_TEXT/UTF8
Идентификатор кодека/Информация : UTF-8 Plain Text
Продолжительность : 44 м. 14 с.
Битрейт : 104 бит/сек
ElementCount : 665
Размер потока : 33,9 Кбайт (0%)
Язык : Ukrainian
Default : Нет
Forced : Нет

Дополнительная информация:

01 - Пилот / Pilot
02 - Все в порядке / Everything Is Cool
03 - Каменные лица / Poker Faces
04 - Превентивные меры / Damage Control
05 - Посетители / Visitors
06 - Ложный оптимизм / Wishful Thinking
07 - Сказки Джоба / Job
08 - После суда / After
Скриншоты:


Смотреть онлайн

[trackeroc.org].31906.torrent  Магнет ссылка
Torrent: Registered   [ 2020-09-24 11:40 ]

Скачать торрент

58 KB

Status: checked
Completed: 34 times
Size: 11.36 GB
 

trackeroc.org (24-сен-20)

Similar torrent
Forum Topic Author Size
Ужасы ,мистика ,триллеры Лестница Иакова / Лестница Джейкоба / Jacob's Ladder (1990) [H.264] BDRip Captain 4.37 GB

_________________
[Profile] [PM]
Display posts from previous:    
Reply to topic

The time now is: Today 20:21

All times are GMT + 4 Hours



You cannot post new topics in this forum
You cannot reply to topics in this forum
You cannot edit your posts in this forum
You cannot delete your posts in this forum
You cannot vote in polls in this forum
You cannot attach files in this forum
You can download files in this forum