Ведьмак: Кошмар волка / The Witcher: Nightmare of the Wolf (2021) WEB-DL [H.264/1080p-LQ] скачать торрент

Reply to topic


DL-List and Torrent activity [Update пиров]
Size:  3.51 GB   |    Registered:  24 days   |    Completed:  0 times
Seeders:  63  [  493 KB/s  ]   Leechers:  6  [  57 MB/s  ]   Show peers in full details
 
 
 
 
Author Message

Pro100Moder ®

Longevity: 7 years 4 months

Posts: 2481

Location: Earth


Post 24-Aug-2021 00:13

[Quote]

Ведьмак: Кошмар волка / The Witcher: Nightmare of the Wolf «Face Your Demons»- Производство: США / Base FX, Netflix, Sean Daniel Company, М.И.Р.
Жанр: мультфильм, фэнтези, боевик
Режиссер: Хан Гван-иль
Продюсер: Чхве Го-ун, Лорен Шмидт Хиссрик
Актеры: Грэм Мактавиш, Тео Джеймс, Мэри МакДоннелл, Лара Пулвер
Описание:
Приквел сериала Ведьмак поведает о юности ведьмака Весемира из Каэр Морхена — главы Школы Волка и наставника Геральта. Мы узнаем, как он сам начинал свой путь, попав в ведьмачью школу, когда таинственный Деглан забрал мальчика на обучение, потребовав его по Праву Неожиданности.

Возраст: 18+ (зрителям, достигшим 18 лет. запрещено для детей)
Дата мировой премьеры: 23 августа 2021
Цифровой релиз: 23 августа 2021, «Netflix»
Релиз от: EniaHD
Продолжительность: 01:23:35
Качество видео: WEB-DL
Перевод: Дублированный (Пифагор)
Субтитры: Русские (Forced, Full), английские (SDH), румынские, украинские
Видео: AVC/H.264, 1920x1080, 4604 kbps
Аудио 1: Е-АС3, 6 ch, 640 Kbps | Русский
Аудио 2: Е-АС3 JOC, 6 ch, 768 Kbps | английский

MediaInfo:

General
Unique ID : 217529271028342132947889426388140318198 (0xA3A69D1A7CDD9F31981BF083A6625DF6)
Complete name : The.Witcher.Nightmare.of.the.Wolf.2021.1080p.NF.WEB-DL.DDP5.1.x264-EniaHD.mkv
Format : Matroska
Format version : Version 4
File size : 3.51 GiB
Duration : 1 h 23 min
Overall bit rate mode : Variable
Overall bit rate : 6 014 kb/s
Movie name : The Witcher: Nightmare of the Wolf (2021) - EniaHD
Encoded date : UTC 2021-08-23 07:01:27
Writing application : mkvmerge v57.0.0 ('Till The End') 64-bit
Writing library : libebml v1.4.2 + libmatroska v1.6.4
Video
ID : 1
Format : AVC
Format/Info : Advanced Video Codec
Format profile : [email protected]
Format settings : CABAC / 4 Ref Frames
Format settings, CABAC : Yes
Format settings, Reference fra : 4 frames
Codec ID : V_MPEG4/ISO/AVC
Duration : 1 h 23 min
Bit rate mode : Variable
Bit rate : 4 604 kb/s
Maximum bit rate : 20.0 Mb/s
Width : 1 920 pixels
Height : 1 080 pixels
Display aspect ratio : 16:9
Frame rate mode : Constant
Frame rate : 24.000 FPS
Color space : YUV
Chroma subsampling : 4:2:0
Bit depth : 8 bits
Scan type : Progressive
Bits/(Pixel*Frame) : 0.093
Stream size : 2.69 GiB (77%)
Writing library : x264 core 148 r2722 1b0121b
Encoding settings : cabac=1 / ref=4 / deblock=1:0:0 / analyse=0x3:0x111 / me=umh / subme=10 / psy=1 / psy_rd=1.00:0.00 / mixed_ref=1 / me_range=120 / chroma_me=1 / trellis=2 / 8x8dct=1 / cqm=0 / deadzone=21,11 / fast_pskip=1 / chroma_qp_offset=-2 / threads=8 / lookahead_threads=2 / sliced_threads=0 / nr=0 / decimate=1 / interlaced=0 / bluray_compat=0 / stitchable=1 / constrained_intra=0 / bframes=16 / b_pyramid=2 / b_adapt=2 / b_bias=0 / direct=3 / weightb=1 / open_gop=0 / weightp=2 / keyint=240 / keyint_min=121 / scenecut=0 / intra_refresh=0 / rc_lookahead=240 / rc=crf / mbtree=1 / crf=16.0 / qcomp=0.50 / qpmin=6 / qpmax=51 / qpstep=4 / vbv_maxrate=20000 / vbv_bufsize=25000 / crf_max=0.0 / nal_hrd=vbr / filler=0 / ip_ratio=1.40 / aq=1:0.80
Default : Yes
Forced : No
Audio #1
ID : 2
Format : E-AC-3
Format/Info : Enhanced AC-3
Commercial name : Dolby Digital Plus
Codec ID : A_EAC3
Duration : 1 h 23 min
Bit rate mode : Constant
Bit rate : 640 kb/s
Channel(s) : 6 channels
Channel layout : L R C LFE Ls Rs
Sampling rate : 48.0 kHz
Frame rate : 31.250 FPS (1536 SPF)
Compression mode : Lossy
Stream size : 383 MiB (11%)
Language : Russian
Service kind : Complete Main
Default : Yes
Forced : No
Audio #2
ID : 3
Format : E-AC-3 JOC
Format/Info : Enhanced AC-3 with Joint Object Coding
Commercial name : Dolby Digital Plus with Dolby Atmos
Codec ID : A_EAC3
Duration : 1 h 23 min
Bit rate mode : Constant
Bit rate : 768 kb/s
Channel(s) : 6 channels
Channel layout : L R C LFE Ls Rs
Sampling rate : 48.0 kHz
Frame rate : 31.250 FPS (1536 SPF)
Compression mode : Lossy
Stream size : 459 MiB (13%)
Language : English
Service kind : Complete Main
Default : No
Forced : No
Complexity index : 16
Number of dynamic objects : 15
Bed channel count : 1 channel
Bed channel configuration : LFE
Text #1
ID : 4
Format : UTF-8
Codec ID : S_TEXT/UTF8
Codec ID/Info : UTF-8 Plain Text
Duration : 1 h 21 min
Bit rate : 0 b/s
Count of elements : 14
Stream size : 561 Bytes (0%)
Title : Forced
Language : Russian
Default : Yes
Forced : No
Text #2
ID : 5
Format : UTF-8
Codec ID : S_TEXT/UTF8
Codec ID/Info : UTF-8 Plain Text
Duration : 1 h 21 min
Bit rate : 88 b/s
Count of elements : 1020
Stream size : 52.8 KiB (0%)
Language : Russian
Default : No
Forced : No
Text #3
ID : 6
Format : UTF-8
Codec ID : S_TEXT/UTF8
Codec ID/Info : UTF-8 Plain Text
Duration : 1 h 21 min
Bit rate : 62 b/s
Count of elements : 1194
Stream size : 37.6 KiB (0%)
Title : SDH
Language : English
Default : No
Forced : No
Text #4
ID : 7
Format : UTF-8
Codec ID : S_TEXT/UTF8
Codec ID/Info : UTF-8 Plain Text
Duration : 1 h 21 min
Bit rate : 54 b/s
Count of elements : 964
Stream size : 32.3 KiB (0%)
Language : Romanian
Default : No
Forced : No
Text #5
ID : 8
Format : UTF-8
Codec ID : S_TEXT/UTF8
Codec ID/Info : UTF-8 Plain Text
Duration : 1 h 21 min
Bit rate : 81 b/s
Count of elements : 1045
Stream size : 48.9 KiB (0%)
Language : Ukrainian
Default : No
Forced : No
-Скриншоты:


Смотреть онлайн

[trackeroc.org].33500.torrent  Магнет ссылка
Torrent: Registered   [ 2021-08-24 00:13 ]

Скачать торрент

10 KB

Status: checked
Completed: 142 times
Size: 3.51 GB
 

trackeroc.info (24-авг-21)

Similar torrent
Forum Topic Author Size
Отечественные Мультсериалы Приключения Пети и Волка (2018-2021) (сезон 1, серии 1-21 из 26) trackeroc.info 4.55 GB
Ужасы ,мистика ,триллеры Кошмар на улице Вязов: Антология / A Nightmare On Elm Street: Anthology (1984-2010) BDRip [H.264/1080p-LQ] Pro100Moder 39.31 GB
Ужасы ,мистика ,триллеры Кошмар на улице Вязов 3: Воины сна / A Nightmare on Elm Street 3: Dream Warriors (1987) BDRip [H.264] Pro100Moder 4.48 GB
Боевики Дочь волка / Daughter of the Wolf (2019) WEB-DLRip [MVO] [AD] Pro100Moder 1.34 GB
[Profile] [PM]
Display posts from previous:    
Reply to topic

The time now is: Today 07:29

All times are GMT + 4 Hours



You cannot post new topics in this forum
You cannot reply to topics in this forum
You cannot edit your posts in this forum
You cannot delete your posts in this forum
You cannot vote in polls in this forum
You cannot attach files in this forum
You can download files in this forum