Твин Пикс / Twin Peaks (1990-1991, 2017) WEBRip (сезон 1-3, серии 1-48 из 48) LostFilm скачать торрент

Reply to topic

DL-List and Torrent activity [Update пиров]
Size:  35.52 GB   |    Registered:  1 month 20 days   |    Completed:  0 times
Seeders:  3  [  141 KB/s  ]   Leechers:  1  [  0 KB/s  ]   Show peers in full details
 
 
 
 
Author Message

Captain ®

Longevity: 6 years 2 months

Posts: 2463

Location: Earth


Post 24-May-2020 20:12

[Quote]

Твин Пикс / Twin Peaks - Производство: США / Lynch/Frost Productions, Propaganda Films, Spelling Entertainment, Twin Peaks Productions Inc., Rancho Rosa Partnership, Showtime
Жанр: драма, криминал, детектив
Режиссер: Дэвид Линч, Лесли Линка Глаттер, Калеб Дешанель и др.
Актеры: Кайл Маклахлен, Шерилин Фенн, Шерил Ли, Мигель Феррер, Рэй Уайз, Дэвид Линч, Дэвид Духовны, Тим Рот, Моника Беллуччи, Аманда Сейфрид, Бальтазар Гетти, Эрни Хадсон, Майкл Хорс, Криста Белл Зюхт, Роберт Форстер, Кимми Робертсон, Наоми Уоттс, Лора Дерн и др.
Описание:
История начинается с известия о находке обнаженного тела Лоры Палмер, «завернутого в полиэтилен» и выброшенного волнами на берег озера. В ходе расследования перед внимательными взглядами агента Купера, шерифа Трумана и его помощников проходят разные жители Твин Пикс. Постепенно зритель открывает для себя темную и страшную сторону жизни обитателей на первый взгляд тихого и мирного городка.
25 лет назад жители маленького городка Твин Пикс были ошеломлены загадочным убийством королевы школы Лоры Палмер. Но история еще не закончена, события давно минувших дней дают о себе знать.
История начинается с известия о находке обнаженного тела Лоры Палмер, «завернутого в полиэтилен» и выброшенного волнами на берег озера. В ходе расследования перед внимательными взглядами агента Купера, шерифа Трумана и его помощников проходят разные жители Твин Пикс. Постепенно зритель открывает для себя темную и страшную сторону жизни обитателей на первый взгляд тихого и мирного городка.

Возраст: 16+ (зрителям, достигшим 16 лет)
Дата мировой премьеры: 8 апреля 1990 / 19 мая 2017
Дата премьеры в России: 4 ноября 1993 / 22 мая 2017

Продолжительность: ~ 00:58:00 / серия
Качество видео: WEBRip
Перевод: Профессиональный (многоголосый) |LostFilm|
Видео: XviD, ~ 1600 Кбит/с, 720x400
Audio: AC3, 2 ch, 192 Кбит/с

Mediainfo:

General
Complete name : Твин Пикс\Season 01\Twin.Peaks.S01E02.XviD.BDRip.lostfilm.(qqss44).avi
Format : AVI
Format/Info : Audio Video Interleave
File size : 664 MiB
Duration : 46mn 27s
Overall bit rate : 1 998 Kbps
Writing application : VirtualDubMod 1.5.10.3 | www.virtualdub-fr.org || (build 2550/release)
Writing library : VirtualDubMod build 2550/release
Video #0
ID : 0
Format : MPEG-4 Visual
Format profile : Advanced [email protected]
Format settings, BVOP : 2
Format settings, QPel : No
Format settings, GMC : No warppoints
Format settings, Matrix : Custom
Codec ID : XVID
Codec ID/Hint : XviD
Duration : 46mn 27s
Bit rate : 1 797 Kbps
Width : 704 pixels
Height : 528 pixels
Display aspect ratio : 4:3
Frame rate : 23.976 fps
Color space : YUV
Chroma subsampling : 4:2:0
Bit depth : 8 bits
Scan type : Progressive
Compression mode : Lossy
Bits/(Pixel*Frame) : 0.202
Stream size : 597 MiB (90%)
Writing library : XviD 73
Audio #1
ID : 1
Format : MPEG Audio
Format version : Version 1
Format profile : Layer 3
Mode : Joint stereo
Mode extension : MS Stereo
Codec ID : 55
Codec ID/Hint : MP3
Duration : 46mn 27s
Bit rate mode : Constant
Bit rate : 192 Kbps
Channel(s) : 2 channels
Sampling rate : 48.0 KHz
Compression mode : Lossy
Stream size : 63.8 MiB (10%)
Alignment : Aligned on interleaves
Interleave, duration : 42 ms (1.00 video frame)
Interleave, preload duration : 504 ms
General
Complete name : Твин Пикс\Season 02\Twin.Peaks.S02E10.XviD.BDRip.lostfilm.(qqss44).avi
Format : AVI
Format/Info : Audio Video Interleave
File size : 678 MiB
Duration : 47mn 21s
Overall bit rate : 2 001 Kbps
Writing application : VirtualDubMod 1.5.10.3 | www.virtualdub-fr.org || (build 2550/release)
Writing library : VirtualDubMod build 2550/release
Video #0
ID : 0
Format : MPEG-4 Visual
Format profile : Advanced [email protected]
Format settings, BVOP : 2
Format settings, QPel : No
Format settings, GMC : No warppoints
Format settings, Matrix : Custom
Codec ID : XVID
Codec ID/Hint : XviD
Duration : 47mn 21s
Bit rate : 1 799 Kbps
Width : 704 pixels
Height : 528 pixels
Display aspect ratio : 4:3
Frame rate : 23.976 fps
Color space : YUV
Chroma subsampling : 4:2:0
Bit depth : 8 bits
Scan type : Progressive
Compression mode : Lossy
Bits/(Pixel*Frame) : 0.202
Stream size : 609 MiB (90%)
Writing library : XviD 73
Audio #1
ID : 1
Format : MPEG Audio
Format version : Version 1
Format profile : Layer 3
Mode : Joint stereo
Mode extension : MS Stereo
Codec ID : 55
Codec ID/Hint : MP3
Duration : 47mn 21s
Bit rate mode : Constant
Bit rate : 192 Kbps
Channel(s) : 2 channels
Sampling rate : 48.0 KHz
Compression mode : Lossy
Stream size : 65.0 MiB (10%)
Alignment : Aligned on interleaves
Interleave, duration : 42 ms (1.00 video frame)
Interleave, preload duration : 504 ms
General
Complete name : Твин Пикс\Season 03\Twin.Peaks.S03E05.XviD.WEBRip.lostfilm.(qqss44).avi
Format : AVI
Format/Info : Audio Video Interleave
File size : 834 MiB
Duration : 58mn 16s
Overall bit rate : 2 001 Kbps
Writing application : VirtualDubMod 1.5.10.3 | www.virtualdub-fr.org || (build 2550/release)
Writing library : VirtualDubMod build 2550/release
Video #0
ID : 0
Format : MPEG-4 Visual
Format profile : Advanced [email protected]
Format settings, BVOP : 2
Format settings, QPel : No
Format settings, GMC : No warppoints
Format settings, Matrix : Custom
Codec ID : XVID
Codec ID/Hint : XviD
Duration : 58mn 16s
Bit rate : 1 800 Kbps
Width : 720 pixels
Height : 400 pixels
Display aspect ratio : 16:9
Frame rate : 23.976 fps
Color space : YUV
Chroma subsampling : 4:2:0
Bit depth : 8 bits
Scan type : Progressive
Compression mode : Lossy
Bits/(Pixel*Frame) : 0.261
Stream size : 750 MiB (90%)
Writing library : XviD 73
Audio #1
ID : 1
Format : MPEG Audio
Format version : Version 1
Format profile : Layer 3
Mode : Joint stereo
Mode extension : MS Stereo
Codec ID : 55
Codec ID/Hint : MP3
Duration : 58mn 16s
Bit rate mode : Constant
Bit rate : 192 Kbps
Channel(s) : 2 channels
Sampling rate : 48.0 KHz
Compression mode : Lossy
Stream size : 80.0 MiB (10%)
Alignment : Aligned on interleaves
Interleave, duration : 42 ms (1.00 video frame)
Interleave, preload duration : 504 ms
-Скриншоты:


Смотреть онлайн

[trackeroc.org].30735.torrent  Магнет ссылка
 SILVER TORRENT! DOWNLOAD TRAFFIC PARTIALLY CONSIDERED! 
Torrent: Registered   [ 2020-05-24 20:12 ]

Скачать торрент

183 KB

Status: checked
Completed: 8 times
Size: 35.52 GB
 

Admin (24-май-20)

Similar torrent
Forum Topic Author Size
Зарубежные сериалы Твин Пикс / Twin Peaks [сезон 3 серии 1-18 из 18] (2017) LostFilm Admin 11.06 GB

_________________
[Profile] [PM]
Display posts from previous:    
Reply to topic

The time now is: Today 04:49

All times are GMT + 4 Hours



You cannot post new topics in this forum
You cannot reply to topics in this forum
You cannot edit your posts in this forum
You cannot delete your posts in this forum
You cannot vote in polls in this forum
You cannot attach files in this forum
You can download files in this forum