Тринадцать привидений / Thir13en Ghosts (2001) BDRip [H.264/720p] скачать торрент

Reply to topic

DL-List and Torrent activity [Update пиров]
Size:  7.24 GB   |    Registered:  19 days   |    Completed:  0 times

Seeder not seen: Never

 
 
 
 
 
Author Message

Captain ®

Longevity: 6 years 5 months

Posts: 2557

Location: Earth


Post 08-Sep-2020 10:26

[Quote]

Тринадцать привидений / Thir13en Ghosts «Terror Wants Company!»- Производство: США, Канада / Warner Bros., Columbia Pictures, Dark Castle Entertainment
Жанр: ужасы, триллер
Режиссер: Стив Бек
Актеры: Тони Шэлоуб, Эмбет Дэвидц, Мэттью Лиллард, Шеннон Элизабет, Алек Робертс, ДжейАр Борн, Ф. Мюррэй Абрахам, Мэттью Харрисон, Джейкоб Рапп
Описание:
После смерти странного дядюшки Сайруса Артур Критикос унаследовал его не менее странный дом. В этом причудливом здании все стены и пол из стекла украшены надписями на латыни, а двери живут своей жизнью, открываясь и закрываясь в ритме, недоступном человеческому пониманию.
Не сразу Артур поймет, что, переступив порог этого жуткого особняка, он исполнит злую волю Сайруса и освободит дюжину мстительных призраков из подвала. И тогда энергия духов приведет в действие агрегат, открывающий путь ко всей мощи потустороннего мира. Но для этого нужно, чтобы к чёрному Зодиаку двенадцати привидений присоединилось ещё одно.

Возраст: 16+ (зрителям, достигшим 16 лет)
Рейтинг MPAA: R (лицам до 17 лет обязательно присутствие взрослого)
Продолжительность: 01:30:49
Качество видео: BDRip
Перевод: Многоголосый профессиональный, авторский
Субтитры: русские, английские
Видео: AVC/H.264, 1280x720, ~8846 kbps
Аудио 1: AC3, 6 ch, 640 kbps, Русский (MVO Карусель)
Аудио 2: AC3, 6 ch, 448 kbps, Русский (MVO R5)
Аудио 3: AC3, 2 ch, 192 kbps, Русский (MVO ТВ3)
Аудио 4: AC3, 6 ch, 448 kbps, Русский (AVO А.Гаврилов)
Аудио 5: AC3, 2 ch, 192 kbps, Русский (AVO С.Визгунов)
Аудио 6: AC3, 6 ch, 640 kbps, Английский

MediaInfo:

Общее
Полное имя : Thir13en.Ghosts.2001.720p.BluRay.mkv
Формат : Matroska
Версия формата : Version 4
Размер файла : 7,24 Гбайт
Продолжительность : 1 ч. 30 м.
Общий поток : 11,4 Мбит/сек
Название фильма : Thir13en Ghosts (2001)
Дата кодирования : UTC 2020-09-05 14:52:26
Программа кодирования : mkvmerge v8.2.0 ('World of Adventure') 64bit
Библиотека кодирования : libebml v1.3.1 + libmatroska v1.4.2
Обложка : Yes
Attachments : xlog.txt / cover.jpg
Видео
Идентификатор : 1
Формат : AVC
Формат/Информация : Advanced Video Codec
Профиль формата : [email protected]
Настройки формата : CABAC / 9 Ref Frames
Параметр CABAC формата : Да
Параметр RefFrames формата : 9 кадров
Идентификатор кодека : V_MPEG4/ISO/AVC
Продолжительность : 1 ч. 30 м.
Битрейт : 8 846 Кбит/сек
Ширина : 1 280 пикселей
Высота : 720 пикселей
Соотношение сторон : 16:9
Режим частоты кадров : Постоянный
Частота кадров : 23,976 (24000/1001) кадра/сек
Цветовое пространство : YUV
Субдискретизация насыщенности : 4:2:0
Битовая глубина : 8 бит
Тип развёртки : Прогрессивная
Бит/(Пиксели*Кадры) : 0.400
Размер потока : 5,61 Гбайт (78%)
Заголовок : Thir13en Ghosts
Библиотека кодирования : x264 core 125 r2208kMod d9d2288
Настройки программы : cabac=1 / ref=9 / deblock=1:-2:-2 / analyse=0x3:0x113 / me=umh / subme=11 / psy=1 / fade_compensate=0.00 / psy_rd=1.10:0.00 / mixed_ref=1 / me_range=48 / chroma_me=1 / trellis=2 / 8x8dct=1 / cqm=0 / deadzone=21,11 / fast_pskip=1 / chroma_qp_offset=-2 / threads=12 / lookahead_threads=2 / sliced_threads=0 / nr=0 / decimate=1 / interlaced=0 / bluray_compat=0 / constrained_intra=0 / bframes=9 / b_pyramid=2 / b_adapt=2 / b_bias=0 / direct=1 / weightb=1 / open_gop=0 / weightp=2 / keyint=250 / keyint_min=23 / scenecut=40 / intra_refresh=0 / rc_lookahead=40 / rc=crf / mbtree=0 / crf=16.0000 / qcomp=0.60 / qpmin=0 / qpmax=69 / qpstep=4 / vbv_maxrate=50000 / vbv_bufsize=62500 / crf_max=0.0 / nal_hrd=none / ip_ratio=1.40 / pb_ratio=1.30 / aq=1:0.90
Язык : English
Default : Да
Forced : Нет
Цветовой диапазон : Limited
Коэффициенты матрицы : BT.709
Аудио #1
Идентификатор : 2
Формат : AC-3
Формат/Информация : Audio Coding 3
Коммерческое название : Dolby Digital
Идентификатор кодека : A_AC3
Продолжительность : 1 ч. 30 м.
Вид битрейта : Постоянный
Битрейт : 640 Кбит/сек
Каналы : 6 каналов
Channel layout : L R C LFE Ls Rs
Частота : 48,0 КГц
Частота кадров : 31,250 кадров/сек (1536 SPF)
Метод сжатия : С потерями
Размер потока : 416 Мбайт (6%)
Заголовок : MVO Карусель
Язык : Russian
Service kind : Complete Main
Default : Да
Forced : Нет
Аудио #2
Идентификатор : 3
Формат : AC-3
Формат/Информация : Audio Coding 3
Коммерческое название : Dolby Digital
Идентификатор кодека : A_AC3
Продолжительность : 1 ч. 30 м.
Вид битрейта : Постоянный
Битрейт : 448 Кбит/сек
Каналы : 6 каналов
Channel layout : L R C LFE Ls Rs
Частота : 48,0 КГц
Частота кадров : 31,250 кадров/сек (1536 SPF)
Метод сжатия : С потерями
Размер потока : 291 Мбайт (4%)
Заголовок : MVO R5
Язык : Russian
Service kind : Complete Main
Default : Нет
Forced : Нет
Аудио #3
Идентификатор : 4
Формат : AC-3
Формат/Информация : Audio Coding 3
Коммерческое название : Dolby Digital
Идентификатор кодека : A_AC3
Продолжительность : 1 ч. 30 м.
Вид битрейта : Постоянный
Битрейт : 192 Кбит/сек
Каналы : 2 канала
Channel layout : L R
Частота : 48,0 КГц
Частота кадров : 31,250 кадров/сек (1536 SPF)
Метод сжатия : С потерями
Размер потока : 125 Мбайт (2%)
Заголовок : MVO ТВ3
Язык : Russian
Service kind : Complete Main
Default : Нет
Forced : Нет
Аудио #4
Идентификатор : 5
Формат : AC-3
Формат/Информация : Audio Coding 3
Коммерческое название : Dolby Digital
Идентификатор кодека : A_AC3
Продолжительность : 1 ч. 30 м.
Вид битрейта : Постоянный
Битрейт : 448 Кбит/сек
Каналы : 6 каналов
Channel layout : L R C LFE Ls Rs
Частота : 48,0 КГц
Частота кадров : 31,250 кадров/сек (1536 SPF)
Метод сжатия : С потерями
Размер потока : 291 Мбайт (4%)
Заголовок : AVO А.Гаврилов
Язык : Russian
Service kind : Complete Main
Default : Нет
Forced : Нет
Аудио #5
Идентификатор : 6
Формат : AC-3
Формат/Информация : Audio Coding 3
Коммерческое название : Dolby Digital
Идентификатор кодека : A_AC3
Продолжительность : 1 ч. 30 м.
Вид битрейта : Постоянный
Битрейт : 192 Кбит/сек
Каналы : 2 канала
Channel layout : L R
Частота : 48,0 КГц
Частота кадров : 31,250 кадров/сек (1536 SPF)
Метод сжатия : С потерями
Размер потока : 125 Мбайт (2%)
Заголовок : AVO С.Визгунов
Язык : Russian
Service kind : Complete Main
Default : Нет
Forced : Нет
Аудио #6
Идентификатор : 7
Формат : AC-3
Формат/Информация : Audio Coding 3
Коммерческое название : Dolby Digital
Идентификатор кодека : A_AC3
Продолжительность : 1 ч. 30 м.
Вид битрейта : Постоянный
Битрейт : 640 Кбит/сек
Каналы : 6 каналов
Channel layout : L R C LFE Ls Rs
Частота : 48,0 КГц
Частота кадров : 31,250 кадров/сек (1536 SPF)
Метод сжатия : С потерями
Размер потока : 416 Мбайт (6%)
Заголовок : Original
Язык : English
Service kind : Complete Main
Default : Нет
Forced : Нет
Текст #1
Идентификатор : 8
Формат : UTF-8
Идентификатор кодека : S_TEXT/UTF8
Идентификатор кодека/Информация : UTF-8 Plain Text
Продолжительность : 1 ч. 29 м.
Битрейт : 75 бит/сек
Count of elements : 864
Размер потока : 49,7 Кбайт (0%)
Язык : Russian
Default : Нет
Forced : Нет
Текст #2
Идентификатор : 9
Формат : UTF-8
Идентификатор кодека : S_TEXT/UTF8
Идентификатор кодека/Информация : UTF-8 Plain Text
Продолжительность : 1 ч. 30 м.
Битрейт : 51 бит/сек
Count of elements : 1051
Размер потока : 34,3 Кбайт (0%)
Заголовок : SDH
Язык : English
Default : Нет
Forced : Нет
Меню
00:00:00.000 : en:Chapter 1
00:05:34.125 : en:Chapter 2
00:09:31.570 : en:Chapter 3
00:12:26.620 : en:Chapter 4
00:17:18.829 : en:Chapter 5
00:23:06.968 : en:Chapter 6
00:28:17.737 : en:Chapter 7
00:32:40.166 : en:Chapter 8
00:35:47.436 : en:Chapter 9
00:38:57.209 : en:Chapter 10
00:44:20.949 : en:Chapter 11
00:49:27.673 : en:Chapter 12
00:52:32.816 : en:Chapter 13
00:56:14.829 : en:Chapter 14
01:01:54.419 : en:Chapter 15
01:05:41.228 : en:Chapter 16
01:09:38.257 : en:Chapter 17
01:13:04.838 : en:Chapter 18
01:15:32.611 : en:Chapter 19
01:18:15.190 : en:Chapter 20
01:21:49.988 : en:Chapter 21
01:22:57.806 : en:Chapter 22
01:24:35.028 : en:Chapter 23
01:26:10.165 : en:Chapter 24
-Скриншоты:


Смотреть онлайн

[trackeroc.org].31770.torrent  Магнет ссылка
Torrent: Registered   [ 2020-09-08 10:26 ]

Скачать торрент

37 KB

Status: checked
Completed: 5 times
Size: 7.24 GB
 

trackeroc.org (08-сен-20)

Similar torrent
Forum Topic Author Size
Квесты, я ищу, Поиск предметов, Hidden Object Haunted Train 3: Clashing Worlds \ Поезд привидений 3: Столкновение миров [RUS / ENG] (2016) Admin 790 MB
Квесты, я ищу, Поиск предметов, Hidden Object Поезд привидений: Замороженное время/Haunted Train 2: Frozen In Time Collector's Edition (2015) (Big Fish Games) (RUS) [P] HOPE 868 MB
Квесты, я ищу, Поиск предметов, Hidden Object Haunted Train: Spirits of Charon Collectors Edition / Поезд привидений: Духи Харона. (2014) (Nevosoft) (RUS) [P] HOPE 692 MB

_________________
[Profile] [PM]
Display posts from previous:    
Reply to topic

The time now is: Today 09:06

All times are GMT + 4 Hours



You cannot post new topics in this forum
You cannot reply to topics in this forum
You cannot edit your posts in this forum
You cannot delete your posts in this forum
You cannot vote in polls in this forum
You cannot attach files in this forum
You can download files in this forum