Тор: Любовь и гром / Thor: Love and Thunder [2022, BDRip 1080p] Dub + 3x MVO + Ukr + Original (Eng) + Sub (rus, eng) скачать торрент

Reply to topic


DL-List and Torrent activity [Update пиров]
Size:  15.76 GB   |    Registered:  1 month 8 days   |    Completed:  0 times
Seeders:  5  [  84 KB/s  ]   Leechers:  1  [  29 MB/s  ]   Show peers in full details
 
 
 
 
Author Message

K15 ®

Longevity: 4 months 5 days

Posts: 32


Post 18-Oct-2022 18:47

[Quote]

Тор: Любовь и гром / Thor: Love and Thunder
«Not every god has a plan»
Страна: Австралия, США
Жанр: Фантастика, фэнтези, боевик, мелодрама, комедия, приключения
Год выпуска: 2022
Продолжительность: 01:58:44-Перевод 1: Профессиональный (дублированный) | Cinema Tone Production
Перевод 2: Профессиональный (многоголосый закадровый) | Jaskier
Перевод 3: Любительский (многоголосый закадровый) | NewComers
Перевод 4: Профессиональный (многоголосый закадровый) | TVShows
Cубтитры: Русские (Full), Украинские (Forced, Full), Английские (Full, SDH, Comm)-Режиссёр: Тайка Вайтити / Taika Waititi-В ролях: Крис Хемсворт, Натали Портман, Кристиан Бэйл, Тесса Томпсон, Тайка Вайтити, Рассел Кроу, Джейми Александер, Крис Пратт, Дэйв Батиста, Карен Гиллан-Описание: После грандиозной битвы, в которой Мстители и их союзники смогли одержать верх над Таносом, асгардский бог грома Тор решил, что для него настало время изменить свою жизнь. После гибели Локи и поражения от Таноса Тор не считал, что может нести ответственность за спасенных им асгардцев. Он спокойно передал бразды правления Новым Асгардом Валькирии, а сам присоединился к Стражам Галактики, решив отправиться в путешествие по просторам космоса. Покидая Землю, Тор не предполагал, что рано или поздно ему придется вернуться, и уж совсем не ожидал тех невероятных изменений, которые произойдут с его возлюбленной Джейн Фостер.-- -Тип релиза: BDRip 1080p
Контейнер: MKV-Видео: AVC/H.264, 1920x804, 15500 Kbps, 23.976 fps
Аудио 1: Русский | AC-3, 6 ch, 448 Kbps, 48.0 kHz Dub Cinema Tone Production
Аудио 2: Русский | AC-3, 6 ch, 384 Kbps, 48.0 kHz MVO Jaskier
Аудио 3: Русский | AC-3, 6 ch, 448 Kbps, 48.0 kHz MVO NewComers
Аудио 4: Русский | AC-3, 2.0 ch, 192 Kbps, 48.0 kHz MVO TVShows
Аудио 5: Украинский | E-AC-3, 6 ch, 256 Kbps, 48.0 kHz Dub LeDoyen
Аудио 6: Английский | E-AC-3, 8 ch, 1536 Kbps, 48.0 kHz
Аудио 7: Английский | AC-3, 2.0 ch, 192 Kbps, 48.0 kHz Commentary by Writer/Director Taika Waititi-Формат субтитров: softsub (SRT)-

MediaInfo

Код:
General
Unique ID                                : 162813168640306676872305012205823604644 (0x7A7CACF9872445DF094F4658B16637A4)
Complete name                            : /Volumes/Promise Pegasus/Thor.Love.and.Thunder.2022.BDRip.1080p.pk.mkv
Format                                   : Matroska
Format version                           : Version 4
File size                                : 15.8 GiB
Duration                                 : 2 h 1 min
Overall bit rate                         : 18.6 Mb/s
Movie name                               : Thor Love and Thunder 2022 BDRip 1080p pk
Encoded date                             : UTC 2022-09-26 22:56:19
Writing application                      : mkvmerge v53.0.0 ('Fool's Gold') 64-bit
Writing library                          : libebml v1.4.1 + libmatroska v1.6.2
Cover                                    : Yes
Attachments                              : cover.jpg / small_cover.jpg / cover.jpg[hr]Video
ID                                       : 1
Format                                   : AVC
Format/Info                              : Advanced Video Codec
Format profile                           : [email protected]
Format settings                          : CABAC / 5 Ref Frames
Format settings, CABAC                   : Yes
Format settings, Reference frames        : 5 frames
Codec ID                                 : V_MPEG4/ISO/AVC
Duration                                 : 1 h 58 min
Bit rate                                 : 15.5 Mb/s
Width                                    : 1 920 pixels
Height                                   : 804 pixels
Display aspect ratio                     : 2.40:1
Frame rate mode                          : Constant
Frame rate                               : 23.976 (24000/1001) FPS
Color space                              : YUV
Chroma subsampling                       : 4:2:0
Bit depth                                : 8 bits
Scan type                                : Progressive
Bits/(Pixel*Frame)                       : 0.420
Stream size                              : 12.9 GiB (82%)
Writing library                          : x264 core 164 r3085+55M t_Mod Encoded by pk5360114 in Russia
Encoding settings                        : cabac=1 / ref=5 / deblock=1:-3:-3 / analyse=0x3:0x133 / me=umh / subme=11 / psy=1 / fade_compensate=0.00 / psy_rd=1.00:0.00 / mixed_ref=1 / me_range=32 / chroma_me=1 / trellis=2 / 8x8dct=1 / cqm=0 / deadzone=21,11 / fast_pskip=0 / chroma_qp_offset=-2 / threads=25 / lookahead_threads=4 / sliced_threads=0 / nr=0 / decimate=0 / interlaced=0 / bluray_compat=0 / constrained_intra=0 / fgo=0 / bframes=9 / b_pyramid=2 / b_adapt=2 / b_bias=0 / direct=3 / weightb=1 / open_gop=0 / weightp=2 / keyint=250 / keyint_min=23 / scenecut=40 / intra_refresh=0 / rc_lookahead=60 / rc=crf / mbtree=0 / crf=14.2000 / qcomp=0.67 / qpmin=0:0:0 / qpmax=69:69:69 / qpstep=4 / vbv_maxrate=62500 / vbv_bufsize=78125 / crf_max=0.0 / nal_hrd=none / filler=0 / ip_ratio=1.30 / pb_ratio=1.20 / aq=3:0.80 / aq-sensitivity=10.00 / aq-factor=1.00:1.00:1.00 / aq2=0 / aq3=0
Language                                 : English
Default                                  : Yes
Forced                                   : No
Color range                              : Limited
Color primaries                          : BT.709
Transfer characteristics                 : BT.709
Matrix coefficients                      : BT.709[hr]Audio #1
ID                                       : 2
Format                                   : AC-3
Format/Info                              : Audio Coding 3
Commercial name                          : Dolby Digital
Codec ID                                 : A_AC3
Duration                                 : 1 h 58 min
Bit rate mode                            : Constant
Bit rate                                 : 448 kb/s
Channel(s)                               : 6 channels
Channel layout                           : L R C LFE Ls Rs
Sampling rate                            : 48.0 kHz
Frame rate                               : 31.250 FPS (1536 SPF)
Compression mode                         : Lossy
Stream size                              : 380 MiB (2%)
Title                                    : Russian Dub Cinema Tone Production
Language                                 : Russian
Service kind                             : Complete Main
Default                                  : Yes
Forced                                   : No[hr]Audio #2
ID                                       : 3
Format                                   : AC-3
Format/Info                              : Audio Coding 3
Commercial name                          : Dolby Digital
Codec ID                                 : A_AC3
Duration                                 : 1 h 58 min
Bit rate mode                            : Constant
Bit rate                                 : 384 kb/s
Channel(s)                               : 6 channels
Channel layout                           : L R C LFE Ls Rs
Sampling rate                            : 48.0 kHz
Frame rate                               : 31.250 FPS (1536 SPF)
Compression mode                         : Lossy
Stream size                              : 326 MiB (2%)
Title                                    : Russian MVO Jaskier
Language                                 : Russian
Service kind                             : Complete Main
Default                                  : No
Forced                                   : No[hr]Audio #3
ID                                       : 4
Format                                   : AC-3
Format/Info                              : Audio Coding 3
Commercial name                          : Dolby Digital
Codec ID                                 : A_AC3
Duration                                 : 1 h 58 min
Bit rate mode                            : Constant
Bit rate                                 : 448 kb/s
Channel(s)                               : 6 channels
Channel layout                           : L R C LFE Ls Rs
Sampling rate                            : 48.0 kHz
Frame rate                               : 31.250 FPS (1536 SPF)
Compression mode                         : Lossy
Stream size                              : 381 MiB (2%)
Title                                    : Russian MVO NewComers
Language                                 : Russian
Service kind                             : Complete Main
Default                                  : No
Forced                                   : No[hr]Audio #4
ID                                       : 5
Format                                   : AC-3
Format/Info                              : Audio Coding 3
Commercial name                          : Dolby Digital
Codec ID                                 : A_AC3
Duration                                 : 1 h 58 min
Bit rate mode                            : Constant
Bit rate                                 : 192 kb/s
Channel(s)                               : 2 channels
Channel layout                           : L R
Sampling rate                            : 48.0 kHz
Frame rate                               : 31.250 FPS (1536 SPF)
Compression mode                         : Lossy
Stream size                              : 163 MiB (1%)
Title                                    : Russian MVO TVShows
Language                                 : Russian
Service kind                             : Complete Main
Default                                  : No
Forced                                   : No[hr]Audio #5
ID                                       : 6
Format                                   : E-AC-3
Format/Info                              : Enhanced AC-3
Commercial name                          : Dolby Digital Plus
Codec ID                                 : A_EAC3
Duration                                 : 2 h 1 min
Bit rate mode                            : Constant
Bit rate                                 : 256 kb/s
Channel(s)                               : 6 channels
Channel layout                           : L R C LFE Ls Rs
Sampling rate                            : 48.0 kHz
Frame rate                               : 31.250 FPS (1536 SPF)
Compression mode                         : Lossy
Stream size                              : 222 MiB (1%)
Title                                    : Ukrainian Dub LeDoyen
Language                                 : Ukrainian
Service kind                             : Complete Main
Default                                  : No
Forced                                   : No[hr]Audio #6
ID                                       : 7
Format                                   : E-AC-3
Format/Info                              : Enhanced AC-3
Commercial name                          : Dolby Digital Plus
Format profile                           : Blu-ray Disc
Codec ID                                 : A_EAC3
Duration                                 : 1 h 58 min
Bit rate mode                            : Constant
Bit rate                                 : 1 536 kb/s
Channel(s)                               : 8 channels
Channel layout                           : L R C LFE Ls Rs Lb Rb
Sampling rate                            : 48.0 kHz
Frame rate                               : 31.250 FPS (1536 SPF)
Compression mode                         : Lossy
Stream size                              : 1.27 GiB (8%)
Title                                    : English Original
Language                                 : English
Service kind                             : Complete Main
Default                                  : No
Forced                                   : No[hr]Audio #7
ID                                       : 8
Format                                   : AC-3
Format/Info                              : Audio Coding 3
Commercial name                          : Dolby Digital
Codec ID                                 : A_AC3
Duration                                 : 1 h 58 min
Bit rate mode                            : Constant
Bit rate                                 : 192 kb/s
Channel(s)                               : 2 channels
Channel layout                           : L R
Sampling rate                            : 48.0 kHz
Frame rate                               : 31.250 FPS (1536 SPF)
Compression mode                         : Lossy
Stream size                              : 163 MiB (1%)
Title                                    : Commentary by Writer/Director Taika Waititi
Language                                 : English
Service kind                             : Complete Main
Default                                  : No
Forced                                   : No[hr]Text #1
ID                                       : 9
Format                                   : UTF-8
Codec ID                                 : S_TEXT/UTF8
Codec ID/Info                            : UTF-8 Plain Text
Duration                                 : 1 h 57 min
Bit rate                                 : 94 b/s
Frame rate                               : 0.228 FPS
Count of elements                        : 1615
Stream size                              : 81.6 KiB (0%)
Title                                    : Russian full Cool Story Blog
Language                                 : Russian
Default                                  : No
Forced                                   : No[hr]Text #2
ID                                       : 10
Format                                   : UTF-8
Codec ID                                 : S_TEXT/UTF8
Codec ID/Info                            : UTF-8 Plain Text
Duration                                 : 1 h 43 min
Bit rate                                 : 0 b/s
Frame rate                               : 0.002 FPS
Count of elements                        : 14
Stream size                              : 598 Bytes (0%)
Title                                    : Ukrainian forced
Language                                 : Ukrainian
Default                                  : No
Forced                                   : No[hr]Text #3
ID                                       : 11
Format                                   : UTF-8
Codec ID                                 : S_TEXT/UTF8
Codec ID/Info                            : UTF-8 Plain Text
Duration                                 : 1 h 57 min
Bit rate                                 : 78 b/s
Frame rate                               : 0.229 FPS
Count of elements                        : 1616
Stream size                              : 67.4 KiB (0%)
Title                                    : Ukrainian full
Language                                 : Ukrainian
Default                                  : No
Forced                                   : No[hr]Text #4
ID                                       : 12
Format                                   : UTF-8
Codec ID                                 : S_TEXT/UTF8
Codec ID/Info                            : UTF-8 Plain Text
Duration                                 : 1 h 57 min
Bit rate                                 : 56 b/s
Frame rate                               : 0.255 FPS
Count of elements                        : 1800
Stream size                              : 48.8 KiB (0%)
Title                                    : English full
Language                                 : English
Default                                  : No
Forced                                   : No[hr]Text #5
ID                                       : 13
Format                                   : UTF-8
Codec ID                                 : S_TEXT/UTF8
Codec ID/Info                            : UTF-8 Plain Text
Duration                                 : 1 h 58 min
Bit rate                                 : 70 b/s
Frame rate                               : 0.321 FPS
Count of elements                        : 2281
Stream size                              : 61.0 KiB (0%)
Title                                    : English SDH
Language                                 : English
Default                                  : No
Forced                                   : No[hr]Text #6
ID                                       : 14
Format                                   : UTF-8
Codec ID                                 : S_TEXT/UTF8
Codec ID/Info                            : UTF-8 Plain Text
Duration                                 : 1 h 58 min
Bit rate                                 : 98 b/s
Frame rate                               : 0.314 FPS
Count of elements                        : 2228
Stream size                              : 85.2 KiB (0%)
Title                                    : Commentary by Writer/Director Taika Waititi
Language                                 : English
Default                                  : No
Forced                                   : No[hr]Menu
00:00:00.000                             : Chapter 01
00:06:45.155                             : Chapter 02
00:10:11.319                             : Chapter 03
00:14:23.780                             : Chapter 04
00:18:13.426                             : Chapter 05
00:20:59.508                             : Chapter 06
00:21:47.806                             : Chapter 07
00:27:00.994                             : Chapter 08
00:28:16.194                             : Chapter 09
00:29:52.249                             : Chapter 10
00:31:24.508                             : Chapter 11
00:35:15.113                             : Chapter 12
00:38:40.443                             : Chapter 13
00:45:37.443                             : Chapter 14
00:53:04.223                             : Chapter 15
01:06:19.392                             : Chapter 16
01:14:16.911                             : Chapter 17
01:24:35.821                             : Chapter 18
01:28:31.181                             : Chapter 19
01:30:19.998                             : Chapter 20
01:34:17.652                             : Chapter 21
01:38:12.678                             : Chapter 22
01:44:45.529                             : Chapter 23
01:48:17.616                             : Chapter 24
01:50:03.430                             : Chapter 25
01:51:14.710                             : Chapter 26[hr]

x264 log

Код:
x264 [info]: frame I:1686  Avg QP:11.09  size:313190
x264 [info]: frame P:42686 Avg QP:12.66  size:135477
x264 [info]: frame B:126444 Avg QP:13.40  size: 59505
x264 [info]: consecutive B-frames:  3.7%  6.0% 14.8% 16.9% 17.9% 32.9%  5.0%  0.8%  1.0%  1.0%
x264 [info]: kb/s:15535.31[hr]

Скриншоты сравнения




Скриншоты



Смотреть онлайн

[trackeroc.org].35269.torrent  Магнет ссылка
Torrent: Registered   [ 2022-10-18 18:47 ]

Скачать торрент

158 KB

Status: checked
Completed: 56 times
Size: 15.76 GB
 

trackeroc.info (19-окт-22)

Similar torrent
Forum Topic Author Size
Квесты, я ищу, Поиск предметов, Hidden Object Immortal Love 9: True Treasure / Бессмертная любовь 9: Настоящее сокровище [RUS] (2022) trackeroc.info 1.49 GB
Visual Novel, Визуальные новеллы 18+ Любовь и секс: Вторая база (2022) (Rus/Eng) [В разработке] trackeroc.info 5.25 GB
Фантастика ,Фэнтези Тор: Любовь и гром / Thor: Love and Thunder[2022 ,BDRip] Dub K15 1.46 GB
Visual Novel, Визуальные новеллы 18+ Любовь, Деньги, Рок-н-ролл / Love, Money, Rock'n'Roll [RUS / ENG] (2022) v3.42 trackeroc.info 2.41 GB

_________________
[Profile] [PM]
Display posts from previous:    
Reply to topic

The time now is: Today 00:08

All times are GMT + 4 Hours



You cannot post new topics in this forum
You cannot reply to topics in this forum
You cannot edit your posts in this forum
You cannot delete your posts in this forum
You cannot vote in polls in this forum
You cannot attach files in this forum
You can download files in this forum