Терминатор / The Terminator (1984) BDRip [H.264] [Remastered] скачать торрент

Reply to topic

DL-List and Torrent activity [Update пиров]
Size:  3.39 GB   |    Registered:  1 month   |    Completed:  0 times
Seeders:  2  [  170 KB/s  ]   Leechers:  1  [  4 MB/s  ]   Show peers in full details
 
 
 
 
Author Message

Moder ®

Longevity: 6 years 7 months

Posts: 2536

Location: Earth


Post 04-Nov-2020 02:18

[Quote]

Терминатор / The Terminator «Твоё будущее в его руках»- Производство: Великобритания, США / MGM, Orion Pictures
Жанр: фантастика, боевик, триллер
Режиссер: Джеймс Кэмерон
Актеры: Арнольд Шварценеггер, Майкл Бьен, Линда Хэмилтон, Пол Уинфилд, Лэнс Хенриксен, Бесс Мотта, Эрл Боэн, Рик Россович, Дик Миллер
Описание:
История противостояния солдата Кайла Риза и киборга-терминатора, прибывших в 1984-й год из пост-апокалиптического будущего, где миром правят машины-убийцы, а человечество находится на грани вымирания. Цель киборга: убить девушку по имени Сара Коннор, чей ещё нерождённый сын к 2029 году выиграет войну человечества с машинами. Цель Риза: спасти Сару и остановить Терминатора любой ценой.

Возраст: 16+ (зрителям, достигшим 16 лет)
Рейтинг MPAA: R (лицам до 17 лет обязательно присутствие взрослого)
Продолжительность: 01:47:08
Качество видео: BDRip
Перевод: Дублированный, многоголосый
Субтитры: русские, английские
Видео: AVC/H.264, 1024x554, 23.976 fps, ~2800 Kbps
Аудио 1: AC3, 6 ch, 448 kbps - Русский (DUB)
Аудио 2: AC3, 6 ch, 448 kbps - Русский (MVO ОРТ)
Аудио 3: AC3, 2 ch, 192 kbps - Русский (MVO НТВ)
Аудио 4: AC3, 2 ch, 192 kbps - Русский (MVO НТВ+)
Аудио 5: AC3, 6 ch, 448 kbps - Английский

MediaInfo:

General
Unique ID : 170780173423437597628971092081076436244 (0x807B10A335B768CCABF1F2ED82317D14)
Complete name : D:\Terminator (1984).mkv
Format : Matroska
Format version : Version 4
File size : 3.39 GiB
Duration : 1 h 47 min
Overall bit rate : 4 526 kb/s
Movie name : Терминатор / The Terminator (1984) (Remastered) - #LORDKILL#
Encoded date : UTC 2020-08-08 18:30:43
Writing application : mkvmerge v8.3.0 ('Over the Horizon') 32bit
Writing library : libebml v1.3.1 + libmatroska v1.4.2
Video
ID : 1
Format : AVC
Format/Info : Advanced Video Codec
Format profile : [email protected]
Format settings : CABAC / 12 Ref Frames
Format settings, CABAC : Yes
Format settings, Reference : 12 frames
Codec ID : V_MPEG4/ISO/AVC
Duration : 1 h 47 min
Bit rate : 2 800 kb/s
Width : 1 024 pixels
Height : 554 pixels
Display aspect ratio : 1.85:1
Frame rate mode : Constant
Frame rate : 23.976 (24000/1001) FPS
Color space : YUV
Chroma subsampling : 4:2:0
Bit depth : 8 bits
Scan type : Progressive
Bits/(Pixel*Frame) : 0.206
Stream size : 2.09 GiB (62%)
Writing library : x264 core 159 r2991 1771b55
Encoding settings : cabac=1 / ref=12 / deblock=1:-2:-2 / analyse=0x3:0x113 / me=umh / subme=10 / psy=1 / psy_rd=1.00:0.20 / mixed_ref=1 / me_range=32 / chroma_me=1 / trellis=2 / 8x8dct=1 / cqm=0 / deadzone=21,11 / fast_pskip=0 / chroma_qp_offset=-3 / threads=12 / lookahead_threads=2 / sliced_threads=0 / nr=0 / decimate=1 / interlaced=0 / bluray_compat=0 / constrained_intra=0 / bframes=9 / b_pyramid=2 / b_adapt=2 / b_bias=0 / direct=3 / weightb=1 / open_gop=0 / weightp=2 / keyint=240 / keyint_min=23 / scenecut=40 / intra_refresh=0 / rc=2pass / mbtree=0 / bitrate=2800 / ratetol=1.0 / qcomp=0.60 / qpmin=0 / qpmax=69 / qpstep=4 / cplxblur=20.0 / qblur=0.5 / ip_ratio=1.40 / pb_ratio=1.30 / aq=1:1.00
Default : Yes
Forced : No
Audio #1
ID : 2
Format : AC-3
Format/Info : Audio Coding 3
Commercial name : Dolby Digital
Codec ID : A_AC3
Duration : 1 h 47 min
Bit rate mode : Constant
Bit rate : 448 kb/s
Channel(s) : 6 channels
Channel layout : L R C LFE Ls Rs
Sampling rate : 48.0 kHz
Frame rate : 31.250 FPS (1536 SPF)
Bit depth : 16 bits
Compression mode : Lossy
Stream size : 343 MiB (10%)
Title : DUB BD
Language : Russian
Service kind : Complete Main
Default : Yes
Forced : No
Audio #2
ID : 3
Format : AC-3
Format/Info : Audio Coding 3
Commercial name : Dolby Digital
Codec ID : A_AC3
Duration : 1 h 47 min
Bit rate mode : Constant
Bit rate : 448 kb/s
Channel(s) : 6 channels
Channel layout : L R C LFE Ls Rs
Sampling rate : 48.0 kHz
Frame rate : 31.250 FPS (1536 SPF)
Bit depth : 16 bits
Compression mode : Lossy
Stream size : 343 MiB (10%)
Title : MVO ОРТ
Language : Russian
Service kind : Complete Main
Default : No
Forced : No
Audio #3
ID : 4
Format : AC-3
Format/Info : Audio Coding 3
Commercial name : Dolby Digital
Codec ID : A_AC3
Duration : 1 h 47 min
Bit rate mode : Constant
Bit rate : 192 kb/s
Channel(s) : 2 channels
Channel layout : L R
Sampling rate : 48.0 kHz
Frame rate : 31.250 FPS (1536 SPF)
Bit depth : 16 bits
Compression mode : Lossy
Stream size : 147 MiB (4%)
Title : MVO НТВ
Language : Russian
Service kind : Complete Main
Default : No
Forced : No
Audio #4
ID : 5
Format : AC-3
Format/Info : Audio Coding 3
Commercial name : Dolby Digital
Codec ID : A_AC3
Duration : 1 h 47 min
Bit rate mode : Constant
Bit rate : 192 kb/s
Channel(s) : 2 channels
Channel layout : L R
Sampling rate : 48.0 kHz
Frame rate : 31.250 FPS (1536 SPF)
Bit depth : 16 bits
Compression mode : Lossy
Stream size : 147 MiB (4%)
Title : MVO НТВ+
Language : Russian
Service kind : Complete Main
Default : No
Forced : No
Audio #5
ID : 6
Format : AC-3
Format/Info : Audio Coding 3
Commercial name : Dolby Digital
Codec ID : A_AC3
Duration : 1 h 47 min
Bit rate mode : Constant
Bit rate : 448 kb/s
Channel(s) : 6 channels
Channel layout : L R C LFE Ls Rs
Sampling rate : 48.0 kHz
Frame rate : 31.250 FPS (1536 SPF)
Bit depth : 16 bits
Compression mode : Lossy
Stream size : 343 MiB (10%)
Language : English
Service kind : Complete Main
Default : No
Forced : No
Text #1
ID : 7
Format : UTF-8
Codec ID : S_TEXT/UTF8
Codec ID/Info : UTF-8 Plain Text
Duration : 1 h 42 min
Bit rate : 45 b/s
Count of elements : 588
Stream size : 33.9 KiB (0%)
Title : Full v.1
Language : Russian
Default : No
Forced : No
Text #2
ID : 8
Format : UTF-8
Codec ID : S_TEXT/UTF8
Codec ID/Info : UTF-8 Plain Text
Duration : 1 h 42 min
Bit rate : 43 b/s
Count of elements : 549
Stream size : 32.5 KiB (0%)
Title : Full v.2
Language : Russian
Default : No
Forced : No
Text #3
ID : 9
Format : UTF-8
Codec ID : S_TEXT/UTF8
Codec ID/Info : UTF-8 Plain Text
Duration : 1 h 38 min
Bit rate : 27 b/s
Count of elements : 561
Stream size : 20.0 KiB (0%)
Language : English
Default : No
Forced : No
-Скриншоты:


Смотреть онлайн

[trackeroc.org].32130.torrent  Магнет ссылка
Torrent: Registered   [ 2020-11-04 02:18 ]

Скачать торрент

18 KB

Status: checked
Completed: 89 times
Size: 3.39 GB
 

trackeroc.org (04-ноя-20)

Similar torrent
Forum Topic Author Size
Фантастика ,Фэнтези Терминатор 2: Судный день / Terminator 2: Judgment Day (1991) HDRip [Theatrical Cut] [Remastered] Moder 2.19 GB
Фантастика ,Фэнтези Терминатор: Генезис / Terminator: Genisys (Алан Тейлор / Alan Taylor) [2015, фантастика, боевик, триллер, HDRip] Матвей 1.45 GB

_________________
[Profile] [PM]
Display posts from previous:    
Reply to topic

The time now is: Today 02:30

All times are GMT + 4 Hours



You cannot post new topics in this forum
You cannot reply to topics in this forum
You cannot edit your posts in this forum
You cannot delete your posts in this forum
You cannot vote in polls in this forum
You cannot attach files in this forum
You can download files in this forum