Терминатор 2: Судный день / Terminator 2: Judgment Day (1991) HDRip [Theatrical Cut] [Remastered] скачать торрент

Reply to topic

DL-List and Torrent activity [Update пиров]
Size:  2.19 GB   |    Registered:  1 month   |    Completed:  0 times
Seeders:  2  [  0 KB/s  ]   Leechers:  2  [  2 MB/s  ]   Show peers in full details
 
 
 
 
Author Message

Moder ®

Longevity: 6 years 7 months

Posts: 2536

Location: Earth


Post 04-Nov-2020 02:11

[Quote]

Терминатор 2: Судный день / Terminator 2: Judgment Day «Same Make. Same Model. New Mission»- Производство: США, Франция / Carolco Pictures, Pacific Western, Lightstorm Entertainment, Canal+
Жанр: Фантастика, Боевик, Триллер
Режиссер: Джеймс Кэмерон
Актеры: Арнольд Шварценеггер, Линда Хэмилтон, Эдвард Ферлонг, Роберт Патрик, Эрл Боэн, Джо Мортон, С. Ипейта Меркерсон, Кастуло Герра, Дэнни Кукси, Дженетт Голдстин
Описание:
Прошло более десяти лет с тех пор, как киборг из 2029 года пытался уничтожить Сару Коннор — женщину, чей будущий сын выиграет войну человечества против машин.
Теперь у Сары родился сын Джон и время, когда он поведёт за собой выживших людей на борьбу с машинами, неумолимо приближается. Именно в этот момент из постапокалиптического будущего прибывает новый терминатор — практически неуязвимая модель T-1000, способная принимать любое обличье. Цель нового терминатора уже не Сара, а уничтожение молодого Джона Коннора.
Однако шансы Джона на спасение существенно повышаются, когда на помощь приходит перепрограммированный сопротивлением терминатор предыдущего поколения. Оба киборга вступают в смертельный бой, от исхода которого зависит судьба человечества.

Возраст: 18+ (зрителям, достигшим 18 лет. запрещено для детей)
Рейтинг MPAA: R (лицам до 17 лет обязательно присутствие взрослого)
Продолжительность: 02:17:08
Качество видео: HDRip
Перевод: Дублированный (ТВ-3)
Субтитры: отсутствуют
Видео: Xvid, 720x304, ~1825 kbps
Аудио: AC3, 6 ch, 448 kbps - Русский дубляж (Фильм озвучен на студии «Zone Vision» по заказу «ТВ3» в 2020 году)

MediaInfo:

Общее
Полное имя : Терминатор-2.Судный.день.1991.Д.HDRip.avi
Формат : AVI
Формат/Информация : Audio Video Interleave
Профиль формата : OpenDML
Размер файла : 2,19 Гбайт
Продолжительность : 2 ч. 17 м.
Общий поток : 2284 Кбит/сек
Библиотека кодирования : VirtualDub build 34703/release
Видео
Идентификатор : 0
Формат : MPEG-4 Visual
Профиль формата : Advanced [email protected]
Настройки формата : BVOP2 / Custom Matrix
Параметр BVOP формата : 2
Параметр QPel формата : Нет
Параметр GMC формата : Без точки перехода
Параметр матрицы формата : Выборочная
Идентификатор кодека : XVID
Идентификатор кодека/Подсказка : XviD
Продолжительность : 2 ч. 17 м.
Битрейт : 1825 Кбит/сек
Ширина : 720 пикселей
Высота : 304 пикселя
Соотношение сторон : 2,35:1
Частота кадров : 23,976 (24000/1001) кадра/сек
Частота кадров в оригинале : 23,976 (23976/1000) кадра/сек
Цветовое пространство : YUV
Субдискретизация насыщенности : 4:2:0
Битовая глубина : 8 бит
Тип развёртки : Прогрессивная
Метод сжатия : С потерями
Бит/(Пиксели*Кадры) : 0.348
Размер потока : 1,75 Гбайт (80%)
Библиотека кодирования : XviD 69
Аудио
Идентификатор : 1
Формат : AC-3
Формат/Информация : Audio Coding 3
Коммерческое название : Dolby Digital
Идентификатор кодека : 2000
Продолжительность : 2 ч. 17 м.
Вид битрейта : Постоянный
Битрейт : 448 Кбит/сек
Каналы : 6 каналов
Channel layout : L R C LFE Ls Rs
Частота : 48,0 КГц
Частота кадров : 31,250 кадров/сек (1536 SPF)
Битовая глубина : 16 бит
Метод сжатия : С потерями
Размер потока : 439 Мбайт (20%)
Выравнивание : Разделение по промежуткам
Продолжительность промежутка : 42 мс. (1,00 видеокадр)
Время предзагрузки промежутка : 500 мс.
ServiceKind/String : Complete Main
-Скриншоты:


Смотреть онлайн

[trackeroc.org].32129.torrent  Магнет ссылка
Torrent: Registered   [ 2020-11-04 02:11 ]

Скачать торрент

12 KB

Status: checked
Completed: 108 times
Size: 2.19 GB
 

trackeroc.org (04-ноя-20)

Similar torrent
Forum Topic Author Size
Фантастика ,Фэнтези Терминатор / The Terminator (1984) BDRip [H.264] [Remastered] Moder 3.39 GB
Приключенческие игры, Adventure Петька и Василий Иванович 2: Судный день. Перезагрузка / Red Comrades 2: For the Great Justice. Reloaded (2016) [RUS/ENG] DarthNihilus 189 MB
Фантастика ,Фэнтези Терминатор: Генезис / Terminator: Genisys (Алан Тейлор / Alan Taylor) [2015, фантастика, боевик, триллер, HDRip] Матвей 1.45 GB

_________________
[Profile] [PM]
Display posts from previous:    
Reply to topic

The time now is: Today 02:57

All times are GMT + 4 Hours



You cannot post new topics in this forum
You cannot reply to topics in this forum
You cannot edit your posts in this forum
You cannot delete your posts in this forum
You cannot vote in polls in this forum
You cannot attach files in this forum
You can download files in this forum