Студентки в кегельбане беса / Sorority Babes in the Slimeball Bowl-O-Rama (1988) DVDRip [H.264] скачать торрент

Reply to topic

DL-List and Torrent activity [Update пиров]
Size:  1.09 GB   |    Registered:  1 month 5 days   |    Completed:  0 times

Seeder not seen: Never

 
 
 
 
 
Author Message

Captain ®

Longevity: 6 years 3 months

Posts: 2472

Location: Earth


Post 09-Jul-2020 21:05

[Quote]

Студентки в кегельбане беса / Sorority Babes in the Slimeball Bowl-O-Rama «He's so wicked»- Производство: США / Beyond Infinity, Empire Pictures, Titan Productions
Жанр: Ужасы, Комедия
Режиссер: Дэвид ДеКото
Актеры: Андрас Джонс, Линни Куигли, Робин Стилл, Хэл Хэвинс, Джон Стюарт Уилдман, Бринк Стивенс, Мишель Бауэр, Кэти Обрехт, Карла Барон, Джордж «Бак» Флауэр
Описание:
Пятеро студентов ночью отправляются в кегельбан с целью украсть один из кубков. Случайно его разбив они выпускают на волю беса, уже 30 лет находящегося в заточении внутри этого кубка. В благодарность за освобождение бес предлагает исполнить любые желания молодых людей. Друзья ещё не догадываются, что выпустили на свободу настоящее чудовище и все они обречены на мучительную смерть...

Продолжительность: 01:19:34
Качество видео: DVDRip
Перевод: Двухголосый закадровый
Субтитры: Отсутствуют
Видео: AVC/H.264, 640x480, ~1780 Kbps
Аудио: AC3, 2 ch, 192 Kbps

Mediainfo:

Код:
General
Unique ID                                : 250127921339945975086994975544079015808 (0xBC2CE2A7304008D39456CB1E40FFDF80)
Complete name                            : Студентки в кегельбане беса.mkv
Format                                   : Matroska
Format version                           : Version 4 / Version 2
File size                                : 1.09 GiB
Duration                                 : 1h 19mn
Overall bit rate                         : 1 974 Kbps
Encoded date                             : UTC 2015-09-25 23:54:13
Writing application                      : mkvmerge v7.0.0 ('Where We Going') 32bit built on Jun  9 2014 15:08:34
Writing library                          : libebml v1.3.0 + libmatroska v1.4.1
DURATION                                 : 01:19:24.288000000
NUMBER_OF_FRAMES                         : 148884
NUMBER_OF_BYTES                          : 114342912
_STATISTICS_WRITING_APP                  : mkvmerge v7.0.0 ('Where We Going') 32bit built on Jun  9 2014 15:08:34
_STATISTICS_WRITING_DATE_UTC             : 2015-09-25 23:54:13
_STATISTICS_TAGS                         : BPS DURATION NUMBER_OF_FRAMES NUMBER_OF_BYTES
Video
ID                                       : 1
Format                                   : AVC
Format/Info                              : Advanced Video Codec
Format profile                           : [email protected]
Format settings, CABAC                   : Yes
Format settings, ReFrames                : 8 frames
Codec ID                                 : V_MPEG4/ISO/AVC
Duration                                 : 1h 19mn
Bit rate                                 : 1 780 Kbps
Width                                    : 640 pixels
Height                                   : 480 pixels
Display aspect ratio                     : 4:3
Frame rate mode                          : Constant
Frame rate                               : 29.970 fps
Color space                              : YUV
Chroma subsampling                       : 4:2:0
Bit depth                                : 8 bits
Scan type                                : Progressive
Bits/(Pixel*Frame)                       : 0.193
Stream size                              : 990 MiB (88%)
Title                                    : Sorority Babes in the Slimeball Bowl-O-Rama
Writing library                          : x264 core 125 r2208 d9d2288
Encoding settings                        : cabac=1 / ref=8 / deblock=1:-1:-1 / analyse=0x3:0x133 / me=umh / subme=9 / psy=1 / psy_rd=1.00:0.10 / mixed_ref=1 / me_range=32 / chroma_me=1 / trellis=2 / 8x8dct=1 / cqm=0 / deadzone=21,11 / fast_pskip=0 / chroma_qp_offset=-3 / threads=6 / lookahead_threads=1 / sliced_threads=0 / nr=0 / decimate=1 / interlaced=0 / bluray_compat=0 / constrained_intra=0 / bframes=3 / b_pyramid=2 / b_adapt=2 / b_bias=0 / direct=3 / weightb=1 / open_gop=0 / weightp=2 / keyint=250 / keyint_min=25 / scenecut=40 / intra_refresh=0 / rc_lookahead=60 / rc=2pass / mbtree=1 / bitrate=1780 / ratetol=1.0 / qcomp=0.60 / qpmin=0 / qpmax=69 / qpstep=4 / cplxblur=20.0 / qblur=0.5 / ip_ratio=1.40 / aq=1:1.00
Language                                 : English
Default                                  : Yes
Forced                                   : No
Audio
ID                                       : 2
Format                                   : AC-3
Format/Info                              : Audio Coding 3
Mode extension                           : CM (complete main)
Format settings, Endianness              : Big
Codec ID                                 : A_AC3
Duration                                 : 1h 19mn
Bit rate mode                            : Constant
Bit rate                                 : 192 Kbps
Channel(s)                               : 2 channels
Channel positions                        : Front: L R
Sampling rate                            : 48.0 KHz
Bit depth                                : 16 bits
Compression mode                         : Lossy
Stream size                              : 109 MiB (10%)
Title                                    : Двуголосый закадровый
Language                                 : Russian
Default                                  : Yes
Forced                                   : No

Знаете ли Вы, что...

  • Фильм был снят за 12 дней.
  • В треке группы Static-X "I'm With Stupid", есть сэмпл с репликой Линни Куигли "Yeah, it was...very stupid."
  • В Англии фильм вышел на VHS под оригинальным названием "The Imp".
  • Бюджет фильма был слишком маленьким, чтобы арендовать кегельбан в дневное время, поэтому съёмочной группе приходилось ждать до закрытия кегельбана в 9 вечера и снимать до 9 утра.
  • Кубок, который якобы сделан из металла, сделан из древесины бальсы.
  • -Скриншоты:
    

    Смотреть онлайн

    [trackeroc.org].31126.torrent  Магнет ссылка
    Torrent: Registered   [ 2020-07-09 21:05 ]

    Скачать торрент

    12 KB

    Status: checked
    Completed: 24 times
    Size: 1.09 GB
     

    Admin (15-июл-20)


    _________________
    [Profile] [PM]
    Display posts from previous:    
    Reply to topic

    The time now is: Today 02:04

    All times are GMT + 4 Hours



    You cannot post new topics in this forum
    You cannot reply to topics in this forum
    You cannot edit your posts in this forum
    You cannot delete your posts in this forum
    You cannot vote in polls in this forum
    You cannot attach files in this forum
    You can download files in this forum