Соник Бум / Sonic Boom (2014) WEB-DLRip (серии 1-52 из 52) скачать торрент

Reply to topic


DL-List and Torrent activity [Update пиров]
Size:  7.26 GB   |    Registered:  5 years 7 months   |    Completed:  4 times
Seeders:  7  [  5 KB/s  ]   Leechers:  10  [  0 KB/s  ]   Show peers in full details
 
 
 
 
Author Message

Pro100Moder ®

Longevity: 8 years 3 months

Posts: 2442

Location: Earth


Post 08-Jan-2017 15:44

[Quote]

Соник Бум / Sonic Boom - Производство: США, Франция | OuiDO! Productions, Sega of America
Жанр: Мультсериал, фантастика, фэнтези, боевик, комедия, приключения, семейный
Режиссер: Наталис Раут Сьюзак
Роли озвучивали: Ника Футтерман, Коллин О’Шонесси, Синди Робинсон, Роджер Крэйг Смит, Трэвис Уиллингэм, Майк Поллок, Кирк Торнтон, Джеймс Хоран, Уолли Вингерт, Джеймс С. Бёрнс
Описание:
События мультсериала разворачиваются в альтернативном мире, отличном от вселенной видеоигр. Каждая серия представляет собой отдельную историю с участием главных героев: ёжика Соника, лисёнка Тейлза, ехидны Наклза, ежихи Эми Роуз и барсучихи Стикс, противостоящих очередному коварному плану доктора Эггмана. В роли противников также выступят как знакомые по играм, так и совершенно новые персонажи
Дата мировой премьеры: 8 ноября 2014
Релиз от: [email protected]
Продолжительность: 00:11:00
Качество видео: WEB-DLRip
Перевод: Дублированный
Видео: Xvid, 720x400, ~ 1603 kbps
Аудио: AC3, 2 ch, 192 kbps

Список серий:

01. Напарник
02. Приют для злодея
03. Трудности перевода
04. Бастер
05. Моя прекрасная Стикс
06. Экстремальное преображение
07. Двойной конец света
08. Яйцеголовые
09. Чувство вины
10. Куда делся Эггман
11. Робокорова
12. Нелегальный цирк
13. Невезучий Наклз
14. Метеорит
15. Эггман в депрессии
16. Случайный Злодей
17. Не судите меня
18. Соус Доктора Эггмана
19. Энергия бега
20. День Ежа
21. Спяший гигант
22. Храм Дружбы
23. Слаженные действия
24. Штраф
25. Навыки выживания
26. Техническая забастовка
27. У Эми
28. Посинеть от зависти
29. Поклятие косоглазого лося
30. Конкурс Чили-догов
31. Тайна закрытой двери
32. Мэр Наклз
33. Эггман - режиссёр
34. Просто парень
35. Раз Наклз, два Наклз
36. Долина Куботов
37. Ещё один злодей
38. Новогодний Реванш
39. Музыкальная битва
40. Влюблённый Тэйлс
41. Лучший друг
42. Телевойны
43. Виновник пожара
44. Меня подставили
45. Битва роботов
46. Роботы запрещены
47. Пушистые собачки
48. Выходи по одному
49. Образцы для подражания
50. Дружеские разногласия
51. Контрпродуктивность
52. Объединение зла

Mediainfo:

Код:
Общее
Формат                                   : AVI
Формат/Информация                        : Audio Video Interleave
Размер файла                             : 144 Мбайт
Продолжительность                        : 11 м. 7 с.
Общий поток                              : 1805 Кбит/сек
Программа кодирования                    : VirtualDubMod 1.5.10.3 | www.virtualdub-fr.org || (build 2550/release)
Библиотека кодирования                   : VirtualDubMod build 2550/release
Видео
Идентификатор                            : 0
Формат                                   : MPEG-4 Visual
Профиль формата                          : Advanced [email protected]
Параметр BVOP формата                    : 1
Параметр QPel формата                    : Нет
Параметр GMC формата                     : Без точки перехода
Параметр матрицы формата                 : Default (MPEG)
Идентификатор кодека                     : XVID
Идентификатор кодека/Подсказка           : XviD
Продолжительность                        : 11 м. 7 с.
Битрейт                                  : 1603 Кбит/сек
Ширина                                   : 720 пикселей
Высота                                   : 400 пикселей
Соотношение сторон                       : 16:9
Частота кадров                           : 25,000 кадров/сек
Цветовое пространство                    : YUV
Субдискретизация насыщенности            : 4:2:0
Битовая глубина                          : 8 бит
Тип развёртки                            : Прогрессивная
Метод сжатия                             : С потерями
Бит/(Пиксели*Кадры)                      : 0.223
Размер потока                            : 128 Мбайт (89%)
Библиотека кодирования                   : XviD 65
Аудио
Идентификатор                            : 1
Формат                                   : AC-3
Формат/Информация                        : Audio Coding 3
Расширение режима                        : CM (complete main)
Параметр Endianness формата              : Big
Идентификатор кодека                     : 2000
Продолжительность                        : 11 м. 7 с.
Вид битрейта                             : Постоянный
Битрейт                                  : 192 Кбит/сек
Каналы                                   : 2 канала
Расположение каналов                     : Front: L R
Частота                                  : 48,0 КГц
Частота кадров                           : 31,250 кадров/сек (1536 spf)
Битовая глубина                          : 16 бит
Метод сжатия                             : С потерями
Размер потока                            : 15,3 Мбайт (11%)
Выравнивание                             : Разделение по промежуткам
Продолжительность промежутка             : 40  мс. (1,00 видеокадр)
Время предзагрузки промежутка            : 500  мс.
-Скриншоты:


Смотреть онлайн

[trackeroc.ru].17719.torrent  Магнет ссылка
Torrent: Registered   [ 2017-01-08 15:44 ]

Скачать торрент

24 KB

Status: checked
Completed: 384 times
Size: 7.26 GB
 

Similar torrent
Forum Topic Author Size
Приключения Соник 2 в кино / Sonic the Hedgehog 2 [2022 г., Фантастика, BDRip] Dub K15 2.13 GB
Приключения Соник 2 в кино / Sonic the Hedgehog 2 [2022 г., Фантастика, BDRip] Dub K15 1.46 GB
Фантастика ,Фэнтези Соник 2 в кино [2022, WEB-DLRip] MVO (Jaskier) .:Rtuty:. 1.46 GB
[Profile] [PM]
Display posts from previous:    
Reply to topic

The time now is: Today 15:41

All times are GMT + 4 Hours



You cannot post new topics in this forum
You cannot reply to topics in this forum
You cannot edit your posts in this forum
You cannot delete your posts in this forum
You cannot vote in polls in this forum
You cannot attach files in this forum
You can download files in this forum