Соник 2 в кино [2022, WEB-DLRip] MVO (Jaskier) скачать торрент

Reply to topic


DL-List and Torrent activity [Update пиров]
Size:  1.46 GB   |    Registered:  1 month 27 days   |    Completed:  1 time
Seeders:  8  [  12 KB/s  ]   Show peers in full details
 
 
 
 
Author Message

.:Rtuty:. ®

Longevity: 2 months 18 days

Posts: 33

Location: Москва


Post 13-Jun-2022 15:11

[Quote]

-Соник 2 в кино / Sonic the Hedgehog 2- Страна: США, Япония
Жанр: Фантастика, фэнтези, боевик, комедия, приключения
Год выпуска: 2022
Продолжительность: 02:02:17-Перевод: Профессиональный (многоголосый закадровый) | Jaskier // thx. KinoPub
Субтитры: нет
Оригинальная аудиодорожка: нет-Режиссер: Джефф Фаулер / Jeff Fowler-В ролях: Джеймс Марсден, Джим Керри, Бен Шварц, Тика Самптер, Идрис Эльба, Наташа Ротуэлл, Адам Палли, Шемар Мур, Ли Мадждуб, Коллин О’Шонесси-Описание: Поселившись в Грин Хилз, Соник стремится доказать, что у него есть все задатки настоящего героя. И геройское испытание не заставляет себя долго ждать: злодейский доктор Роботник вновь строит козни. На этот раз — с загадочным напарником Наклзом. Вместе они разыскивают бесценный изумруд, в котором заключены силы, способные уничтожать целые цивилизации. Соник объединяется с лисенком Тейлзом, чтобы отправиться в кругосветное путешествие и найти изумруд до того, как он попадет в плохие руки.-Качество видео: WEB-DLRip
Формат видео: AVI
Видео: 720x304 (2.35:1), 23.976 fps, XviD build 73 ~1513 kbps avg, 0.288 bit/pixel
Аудио: 48 kHz, AC3 Dolby Digital, 2/0 (L,R) ch, ~192 kbps | Многоголосый закадровый (Jaskier)-

MediaInfo

Код:
General
Complete name : D:\Sonik.2.2022.WEB-DLRip.avi
Format : AVI
Format/Info : Audio Video Interleave
File size : 1.46 GiB
Duration : 2 h 2 min
Overall bit rate : 1 715 kb/s
Movie name : Соник 2 в кино / Sonic the Hedgehog 2 (2022) WEB-DLRip
Director : Джефф Фаулер / Jeff Fowler
Genre : Фантастика, фэнтези, боевик
Writing application : VirtualDubMod 1.5.10.2 (build 2542/release)
Original source form/Name : Художественный фильм
Copyright : США, Япония, Канада, Blur Studio, Marza Animation Planet, Original Film, Paramount Pictures, Sega Sammy Group
Comment : Rip by vitolinform
Video
ID : 0
Format : MPEG-4 Visual
Format profile : Advanced [email protected]
Format settings : BVOP1 / Custom Matrix
Format settings, BVOP : 1
Format settings, QPel : No
Format settings, GMC : No warppoints
Format settings, Matrix : Custom
Codec ID : XVID
Codec ID/Hint : XviD
Duration : 2 h 2 min
Bit rate : 1 513 kb/s
Width : 720 pixels
Height : 304 pixels
Display aspect ratio : 2.35:1
Frame rate : 23.976 (24000/1001) FPS
Color space : YUV
Chroma subsampling : 4:2:0
Bit depth : 8 bits
Scan type : Progressive
Compression mode : Lossy
Bits/(Pixel*Frame) : 0.288
Stream size : 1.29 GiB (88%)
Writing library : XviD 69
Audio
ID : 1
Format : AC-3
Format/Info : Audio Coding 3
Commercial name : Dolby Digital
Codec ID : 2000
Duration : 2 h 2 min
Bit rate mode : Constant
Bit rate : 192 kb/s
Channel(s) : 2 channels
Channel layout : L R
Sampling rate : 48.0 kHz
Frame rate : 31.250 FPS (1536 SPF)
Compression mode : Lossy
Stream size : 168 MiB (11%)
Alignment : Split across interleaves
Interleave, duration : 42 ms (1.00 video frame)
Interleave, preload duration : 500 ms
Title : Russian (MVO, Jaskier)
Service kind : Complete Main

Скриншоты



Смотреть онлайн

[trackeroc.org].34702.torrent  Магнет ссылка
Torrent: Registered   [ 2022-06-13 15:11 ]

Скачать торрент

15 KB

Status: checked
Completed: 54 times
Size: 1.46 GB
 

trackeroc.info (13-июн-22)

Similar torrent
Forum Topic Author Size
Приключения Соник 2 в кино / Sonic the Hedgehog 2 [2022 г., Фантастика, BDRip] Dub K15 2.13 GB
Приключения Соник 2 в кино / Sonic the Hedgehog 2 [2022 г., Фантастика, BDRip] Dub K15 1.46 GB
Зарубежные Мультсериалы Соник Бум / Sonic Boom (2014) WEB-DLRip (серии 1-52 из 52) Pro100Moder 7.26 GB

_________________
[Profile] [PM]

trackeroc.info

Longevity: 8 years 3 months

Posts: 11676

Location: trackeroc.org trackeroc.info trackeroc.ml trackeroc.ga trackeroc.space


Post 21-Jun-2022 08:28 (after 7 days)

[Quote]

Соник в кино / Sonic the Hedgehog
«Скорость - его второе имя»
- Год выхода: 2016
Страна: США, Япония, Канада
Жанр: фантастика, комедия, приключения, семейный
Продолжительность: 01:38:53
Перевод: Профессиональный (полное дублирование) BD EUR / «SDI Media»
Субтитры: Русские (форс., полные 2 вида), Украинские (форс., полные), Английские (полные, SDH)
Оригинальная аудиодорожка: Английская
Навигация по главам: Есть (16 глав)-Режиссер:
Джефф Фаулер / Jeff Fowler-В ролях:
Джеймс Марсден, Бен Шварц, Наташа Ротуэлл, Тика Самптер, Нил МакДонаф, Адам Палли, Джим Керри, Майкл Хоган, Ли Мадждуб, Том Батлер, Фрэнк Ч. Тёрнер-О фильме:
Отвязный ярко-синий ёжик Соник из параллельного мира вместе с новообретённым лучшим другом-человеком по имени Том знакомится со сложностями жизни на Земле и противостоит злодейскому доктору Роботнику, который хочет пленить Соника и использовать его безграничные суперсилы для завоевания мирового господства.-Релиз групп
| | IMDB | КиноПоиск | Сэмпл |-Качество: BDRip-AVC [Sonic.The.Hedgehog.2020.Lic.D.MVO.BDREMUX.1080p.seleZen]
Формат: MKV
Видео: 1108x464 (2,40:1), 23,976 fps, x264 ~2423 kbps avg, 0.197 bit/pixel
Аудио #1: 48 kHz, AC3 Dolby Digital, 3/2 (L,C,R,l,r) + LFE ch, ~448 kbps (RUS)
Аудио #2: 48 kHz, AC3 Dolby Digital, 2/0 (L,R) ch, ~224 kbps avg (ENG)
Формат субтитров: Softsub (.srt*)
-

Скриншоты

-


Смотреть онлайн

Attachments
[Profile] [PM]
Display posts from previous:    
Reply to topic

The time now is: Today 14:54

All times are GMT + 4 Hours



You cannot post new topics in this forum
You cannot reply to topics in this forum
You cannot edit your posts in this forum
You cannot delete your posts in this forum
You cannot vote in polls in this forum
You cannot attach files in this forum
You can download files in this forum