Сказочный патруль (2016-2020) (сезон 1-2, серии 1-52 из 78) скачать торрент

Reply to topic


DL-List and Torrent activity [Update пиров]
Size:  8.34 GB   |    Registered:  1 month 2 days   |    Completed:  0 times
Seeders:  27  [  15 KB/s  ]   Leechers:  16  [  38 MB/s  ]   Show peers in full details
 
 
 
 
Author Message

Pro100Moder ®

Longevity: 6 years 11 months

Posts: 2534

Location: Earth


Post 18-Apr-2020 05:08

[Quote]

Сказочный патруль
«Волшебники среди нас»
- Производство: Россия / Анимационная студия «Паровоз»
Жанр: Детский, Компьютерная анимация
Режиссер: Наиль Мубинов, Андрей Колпин
Актеры: Мирослава Карпович, Полина Кутепова, Ольга Кузьмина, Юлия Александрова, Иван Жвакин, Ёла Санько, Диомид Виноградов, Даниил Эльдаров, Влад Красавин
Персонажи: Алёнка, Маша, Снежка, Варя, Кот Учёный
Описание:
События мультсериала происходят в таинственном городе "Мышкин" - музее сказок "под открытым небом". Жители этого города, наполненного сказочными героями, необычными приключениями и чудесами, думают, что это всего лишь постановочное шоу для привлечения туристов! Главные персонажи мультсериала - четыре юные волшебницы. Их задача - наблюдать за поведением сказочных персонажей, оказывать им помощь и охранять спокойствие города, сохраняя баланс между миром сказок и людей.

Возраст: 6+ (зрителям, достигшим 6 лет)
Рейтинг MPAA: PG (рекомендуется присутствие родителей)
Релиз от: Natasha77 (NNM-Club)
Продолжительность: 00:11:00
Качество видео: WEB-DLRip
Перевод: Не требуется (Русский)
Субтитры: Отсутствуют
Видео: AVC/H.264, 1280x720, ~2000 kbps
Аудио: Русский: AС3, 2 ch, 192 kbps

MediaInfo

Код:
General
Unique ID                   : 203350655507717515596300766156962042444 (0x98FBE962E5CD7C47F6AEBA6B9FDE924C)
Complete name               : C:\Сказочный патруль (720p-AVC)\01_Знакомство.mkv
Format                      : Matroska
Format version              : Version 4 / Version 2
File size                   : 152 MiB
Duration                    : 11mn 0s
Overall bit rate            : 1 931 Kbps
Writing application         : Lavf57.25.100
Writing library             : Lavf57.25.100 / Lavf57.25.100
Video
ID                          : 1
Format                      : AVC
Format/Info                 : Advanced Video Codec
Format profile              : [email protected]
Format settings, CABAC      : Yes
Format settings, ReFrames   : 4 frames
Codec ID                    : V_MPEG4/ISO/AVC
Duration                    : 11mn 0s
Bit rate                    : 1 701 Kbps
Width                       : 1 280 pixels
Height                      : 720 pixels
Display aspect ratio        : 16:9
Frame rate mode             : Constant
Frame rate                  : 25.000 fps
Color space                 : YUV
Chroma subsampling          : 4:2:0
Bit depth                   : 8 bits
Scan type                   : Progressive
Bits/(Pixel*Frame)          : 0.074
Stream size                 : 134 MiB (88%)
Writing library             : x264 core 146 r2538 121396c
Encoding settings           : cabac=1 / ref=3 / deblock=1:0:0 / analyse=0x3:0x133 / me=hex / subme=7 / psy=1 / psy_rd=1.00:0.00 / mixed_ref=1 / me_range=16 / chroma_me=1 / trellis=1 / 8x8dct=1 / cqm=0 / deadzone=21,11 / fast_pskip=1 / chroma_qp_offset=-2 / threads=3 / lookahead_threads=1 / sliced_threads=0 / nr=0 / decimate=1 / interlaced=0 / bluray_compat=0 / constrained_intra=0 / bframes=3 / b_pyramid=2 / b_adapt=1 / b_bias=0 / direct=1 / weightb=1 / open_gop=0 / weightp=2 / keyint=250 / keyint_min=25 / scenecut=40 / intra_refresh=0 / rc_lookahead=40 / rc=crf / mbtree=1 / crf=20.0 / qcomp=0.60 / qpmin=10 / qpmax=51 / qpstep=4 / ip_ratio=1.40 / aq=1:1.00
Default                     : Yes
Forced                      : No
DURATION                    : 00:11:00.160000000
Audio
ID                          : 2
Format                      : AC-3
Format/Info                 : Audio Coding 3
Mode extension              : CM (complete main)
Format settings, Endianness : Big
Codec ID                    : A_AC3
Duration                    : 11mn 0s
Bit rate mode               : Constant
Bit rate                    : 192 Kbps
Channel(s)                  : 2 channels
Channel positions           : Front: L R
Sampling rate               : 44.1 KHz
Frame rate                  : 28.711 fps (1536 spf)
Compression mode            : Lossy
Delay relative to video     : -40ms
Stream size                 : 15.1 MiB (10%)
Language                    : unknown
Default                     : Yes
Forced                      : No

Главные персонажи:


Алёнка
Аленка веселая, бесхитростная, очень эмоциональная, экспрессивная. Общительная, говорливая – часто говорит не по делу. Легкомысленная, сначала делает, потом думает. Ей хочется «всего и сразу», поэтому часто она ленится тренировать свои способности, что приводит к разного рода казусам.-
Маша
Логичная, практичная, стремится все делать по правилам и по заранее разработанному плану. Отличница, изобретательница, прекрасно разбирается в любой технике, как в современных людских гаджетах, так и сказочной. Старается контролировать свои эмоции.-
Снежка
Задумчивая, молчаливая, спокойная, деликатная, предпочитает не вмешиваться во внутренние конфликты девочек. Немного инфантильна, восторженна, все принимает за «чистую правду». Привязана к своему «другу детства», плюшевому зайке.-
Варя
Лидер. Девочка, уверенная в себе, порывистая, яркая, острая на язык, человек действия. Прямолинейная в действиях и суждениях, не всегда тактичная. Красивая, категоричная. Боец – быстрая, сильная, ловкая, бесстрашная.-
Кот Учёный
Говорящий кот – владелец и единственный работник кафе «Лукоморье». Кафе – это прикрытие, и Кот Ученый является старейшим хранителем сказок. Харизматичный, очень пластичный, обидчивый, немного высокомерный и нервный. Смотрит на «Патруль» свысока, считая, что девочки слишком юные, для того, чтоб выполнять сложные задания. Но в случае реальной опасности готов прийти им на помощь.

Награды:

1 сентября 2018 года сериал «Сказочный патруль» получил премию «Главные герои» как лучший российский анимационный сериал. Премия «Главные Герои» — ежегодная награда, присуждаемая исключительно детьми на основе общероссийского голосования. Учредитель премии — телеканал Карусель.
В 2017 году «Сказочный патруль» вышел в финал премии, проходящей в рамках престижного Международного фестиваля анимационных фильмов в Анси, Франция.
Получил российскую национальную анимационную премию «Икар», став лауреатом в номинации «Стартап».
Был отобран для участия в Шанхайском международном телефестивале.
Взял престижную премию CYBER SOUSA на международном анимационном фестивале в городе Сямэнь, Китай.
В 2018 году «Сказочный патруль» получил премию «Мультимир», как лучший российский анимационный сериал по мнению жюри.
В 2018 году Снежка получила премию «Мультимир», как лучшая героиня российского анимационного фильма.
Также, мультсериал получил премию «Золотая Мышь» в номинации «популяризация образа Мыши и продвижение города Мышкина» на Фестивале Мыши 2018.
Сериал был награжден Национальной детской премией «Главные герои» 2018, как главный российский анимационный сериал.
Песня «Поверь в себя» была удостоена премии «Мультимир» 2018, как лучшая песня российского анимационного фильма.
-Скриншоты:


Смотреть онлайн

[trackeroc.org].30292.torrent  Магнет ссылка
Torrent: Registered   [ 2021-03-10 16:04 ]

Скачать торрент

26 KB

Status: * not checked
Completed: 1200 times
Size: 8.34 GB
 

www.trackeroc.ru (18-апр-20)

Similar torrent
Forum Topic Author Size
Зарубежные сериалы Спецназ города ангелов / S.W.A.T [сезон 4 / Серии: 1-13] (2020) WEBRip | TVShows www.trackeroc.ru 6.64 GB
Песочницы, Sandbox Signs of Life [v0.21.26] (2016) (ENG) Early Access www.trackeroc.ru 527 MB
Отечественные Мультсериалы Зебра в клеточку (2020) (сезон 1-2, серии 1-39 из 52) trackeroc.org 5 GB
Песочницы, Sandbox Ancient Cities v0.2.2.2 [Early Access] (2020) (ENG) trackeroc.org 768 MB
Зарубежные Творцы снов / Drømmebyggerne (2020) BDRip | iTunes www.trackeroc.ru 1.42 GB

_________________
[Profile] [PM]
Display posts from previous:    
Reply to topic

The time now is: Today 20:59

All times are GMT + 4 Hours



You cannot post new topics in this forum
You cannot reply to topics in this forum
You cannot edit your posts in this forum
You cannot delete your posts in this forum
You cannot vote in polls in this forum
You cannot attach files in this forum
You can download files in this forum