Сэм: Песочный эльф / Four Kids and It (2020) HDRip [Line, AD] скачать торрент

Reply to topic


DL-List and Torrent activity [Update пиров]
Size:  1.46 GB   |    Registered:  16 days   |    Completed:  0 times
Seeders:  6  [  90 KB/s  ]   Show peers in full details
 
 
 
 
Author Message

Pro100Moder ®

Longevity: 6 years 11 months

Posts: 2534

Location: Earth


Post 27-Mar-2021 06:22

[Quote]

Сэм: Песочный эльф / Four Kids and It - Производство: Великобритания / Dan Films, Deadpan Pictures, Kindle Entertainment
Жанр: фэнтези, семейный
Режиссер: Энди де Эммони
Продюсер: Джули Бэйнс, Энн Броган, Джеральдин Ист
Актеры: Билли Дженкинс, Элли-Мэй Сиаме, Эшли Ауфдерхайд, Тедди-Роуз Маллсон-Аллен, Пола Пэттон, Расселл Брэнд, Майкл Кейн, Пиппа Хэйвуд, Мэттью Гуд, Кэролайн Шин
Описание:
Волшебный эльф Сэм обладает магической силой — исполняет любые желания. Четверо детей знакомятся с ним и получают все, о чем мечтали: розовый вертолёт, способность взбираться на любые скалы, летать и даже стать поп-звездой и кумиром миллионов. Но эльфа ждёт опасность. Но у коллекционера Тристана другие планы, с помощью Сэма можно получить золото и власть.

Возраст: 6+ (зрителям, достигшим 6 лет)
Рейтинг MPAA: PG (рекомендуется присутствие родителей)
Дата мировой премьеры: 3 апреля 2020
Дата российской премьеры: 11 марта 2021
Продолжительность: 01:50:00
Качество видео: HDRip
Перевод: Дублированный (Line)
Субтитры: Отсутствуют
Реклама: Присутствует баннер, звуковая реклама
Видео: XviD, 720x304, 1702 Kbps
Аудио: AC3, 2 ch, 192 Kbps

MediaInfo:

Общее
Полное имя : Four.Kids.and.It.2020 HDRip.Line.avi
Формат : AVI
Формат/Информация : Audio Video Interleave
Размер файла : 1,46 Гбайт
Продолжительность : 1 ч. 50 м.
Общий поток : 1905 Кбит/сек
Видео
Идентификатор : 0
Формат : MPEG-4 Visual
Профиль формата : Advanced [email protected]
Настройки формата : BVOP2
Параметр BVOP формата : 2
Параметр QPel формата : Нет
Параметр GMC формата : Без точки перехода
Параметр матрицы формата : Default (MPEG)
Идентификатор кодека : XVID
Идентификатор кодека/Подсказка : XviD
Продолжительность : 1 ч. 50 м.
Битрейт : 1702 Кбит/сек
Ширина : 720 пикселей
Высота : 304 пикселя
Соотношение сторон : 2,35:1
Частота кадров : 23,976 (24000/1001) кадра/сек
Цветовое пространство : YUV
Субдискретизация насыщенности : 4:2:0
Битовая глубина : 8 бит
Тип развёртки : Прогрессивная
Метод сжатия : С потерями
Бит/(Пиксели*Кадры) : 0.324
Размер потока : 1,31 Гбайт (89%)
Библиотека кодирования : XviD 69
Аудио
Идентификатор : 1
Формат : AC-3
Формат/Информация : Audio Coding 3
Коммерческое название : Dolby Digital
Идентификатор кодека : 2000
Продолжительность : 1 ч. 50 м.
Вид битрейта : Постоянный
Битрейт : 192 Кбит/сек
Каналы : 2 канала
Channel layout : L R
Частота : 48,0 КГц
Частота кадров : 31,250 кадров/сек (1536 SPF)
Битовая глубина : 16 бит
Метод сжатия : С потерями
Размер потока : 151 Мбайт (10%)
Выравнивание : Соединение по промежуткам
Продолжительность промежутка : 32 мс. (0,77 видеокадр)
ServiceKind/String : Complete Main
-Скриншоты:


Смотреть онлайн

[trackeroc.org].32758.torrent  Магнет ссылка
Torrent: Registered   [ 2021-03-27 06:22 ]

Скачать торрент

59 KB

Status: checked
Completed: 67 times
Size: 1.46 GB
 

www.trackeroc.ru (27-мар-21), trackeroc.org (27-мар-21)


_________________
[Profile] [PM]
Display posts from previous:    
Reply to topic

The time now is: Today 17:13

All times are GMT + 4 Hours



You cannot post new topics in this forum
You cannot reply to topics in this forum
You cannot edit your posts in this forum
You cannot delete your posts in this forum
You cannot vote in polls in this forum
You cannot attach files in this forum
You can download files in this forum