Развлечёба (2018-2020) (сезон 1, серии 1-259) скачать торрент

Reply to topic

DL-List and Torrent activity [Update пиров]
Size:  14.04 GB   |    Registered:  12 days   |    Completed:  0 times
Seeders:  9  [  31 KB/s  ]   Leechers:  1  [  3 MB/s  ]   Show peers in full details
 
 
 
 
Author Message

www.trackeroc.ru ®

Longevity: 6 years 10 months

Posts: 9990

Location: Скачать торрент


Post 03-May-2020 09:42

[Quote]

Развлечёба - Жанр: Обучающий мультсериал для школьников 1-4 классов
Производство: Россия / СТС Kids
Режиссер: Илья Белов, Евгений Дьячков
Персонажи: Кот Кубокот
Описание: Сериал «Развлечёба» и его главный герой кот Кубокот расскажут обо всём, что есть в школьной программе, только интересней.
Весёлый Кубокот знает все основные предметы и расписание уроков. Он поможет юным зрителям сериала «Развлечёба» подтянуть математику, повторить грамматику, полюбить историю, изучить окружающий мир, овладеть иностранными языками и разжечь интерес к новым знаниям. В конце каждой серии Кубокот устраивает небольшую интерактивную игру, чтобы ребята могли сразу блеснуть новыми знаниями.
Процесс получения новых знаний еще никогда не был таким увлекательным, ведь создатели анимационного сериала превратили урок в развлечение.

Возраст: 6+ (зрителям, достигшим 6 лет)
Релиз от: Natasha77 (NNM-Club)
Продолжительность: ~ 00:04:30 - 00:08:30 серия
Качество видео: WEB-DLRip
Перевод: Не требуется (Русский)
Субтитры: Отсутствуют
Видео: AVC/H.264, 1280x720, ~1000 kbps
Аудио: Русский: AAC, 2 ch, 192 kbps

MediaInfo

Код:
Общее
Уникальный идентификатор                 : 321990400018909703030161634935736671675 (0xF23D1866E6FC2458B5A2C75713F89DBB)
Полное имя                               : А:\Развлечёба (720p-AVC)\003_Про город и село.mkv
Формат                                   : Matroska
Версия формата                           : Version 4
Размер файла                             : 34,7 Мбайт
Продолжительность                        : 3 м. 25 с.
Общий поток                              : 1418 Кбит/сек
Программа кодирования                    : Lavf57.71.100
Библиотека кодирования                   : Lavf57.71.100
Видео
Идентификатор                            : 1
Формат                                   : AVC
Формат/Информация                        : Advanced Video Codec
Профиль формата                          : [email protected]
Настройки формата                        : CABAC / 4 Ref Frames
Параметр CABAC формата                   : Да
Параметр RefFrames формата               : 4 кадра
Идентификатор кодека                     : V_MPEG4/ISO/AVC
Продолжительность                        : 3 м. 25 с.
Битрейт                                  : 1197 Кбит/сек
Ширина                                   : 1280 пикселей
Высота                                   : 720 пикселей
Соотношение сторон                       : 16:9
Режим частоты кадров                     : Постоянный
Частота кадров                           : 25,000 кадров/сек
Цветовое пространство                    : YUV
Субдискретизация насыщенности            : 4:2:0
Битовая глубина                          : 8 бит
Тип развёртки                            : Прогрессивная
Бит/(Пиксели*Кадры)                      : 0.052
Размер потока                            : 29,3 Мбайт (84%)
Библиотека кодирования                   : x264 core 152 r2854 e9a5903
Default                                  : Да
Forced                                   : Нет
Аудио
Идентификатор                            : 2
Формат                                   : AC-3
Формат/Информация                        : Audio Coding 3
Коммерческое название                    : Dolby Digital
Идентификатор кодека                     : A_AC3
Продолжительность                        : 3 м. 25 с.
Вид битрейта                             : Постоянный
Битрейт                                  : 192 Кбит/сек
Каналы                                   : 2 канала
Channel layout                           : L R
Частота                                  : 44,1 КГц
Частота кадров                           : 28,711 кадров/сек (1536 SPF)
Битовая глубина                          : 16 бит
Метод сжатия                             : С потерями
Задержка видео                           : -80 мс.
Размер потока                            : 4,69 Мбайт (14%)
ServiceKind/String                       : Complete Main
Default                                  : Да

Интересные факты:

Многим детям скучно в школе. Именно это больше всего влияет на успеваемость. Телеканал СТС Kids нашел интересный выход и решил превратить скучные уроки в мини-приключение для телезрителей.
При создании «Развлечёбы» были учтены основные педагогические законы: наглядность, повторение, практика. В конце каждого выпуска будет проходить интерактивная игра – Кот Кубокот задаст зрителю контрольный вопрос по пройденной теме. Разные варианты вопросов в конце программы позволят проверить ребёнка на внимательность и логику.
Формат проекта сконструирован таким образом, что создаётся впечатление просмотра развлекательного мультфильма. Но при этом в памяти детей откладывается информация из школьной программы. Хронометраж выпусков не даёт времени понять, что это урок.
Каждый выпуск «Развлечёбы» будет идти параллельно школьной программе 1-4 классов. Это позволит закрепить полученные в школе знания или обрести их, если на уроке ребёнок отвлёкся.
«Превратить учение в развлечение не так-то просто. Но, как нам кажется, у нас это получилось. Кот Кубокот станет хорошим другом для нашего юного зрителя. Мы очень надеемся, что «Развлечёба» повысит интерес детей к обучению, и ждем, что успеваемость телезрителей будет выше, чем была год назад», – рассказывает директор СТС Kids Лев Макаров.
-Скриншоты:


Смотреть онлайн

[trackeroc.org].30478.torrent  Магнет ссылка
Torrent: Registered   [ 2021-02-13 11:01 ]

Скачать торрент

91 KB

Status: * not checked
Completed: 240 times
Size: 14.04 GB
 

Moder (03-май-20)

Similar torrent
Forum Topic Author Size
Visual Novel, Визуальные новеллы V1Vampire life Build 0.68.0 (2020) (ENG+RUS) www.trackeroc.ru 760 MB
Зомби игры, Survival, Horror Dead Age 2 (2020) [Ru/Multi] (1.63) [Early Access] GOG www.trackeroc.ru 6.09 GB
Инди, Sandbox Factorio v1.1.25 (2020) [64bit] (ENG+RUS) GOG www.trackeroc.ru 1.86 GB
RPG Hellpoint (2020) [Ru/Multi] (366.43631) License GOG trackeroc.org 4.2 GB
RPG Medieval Dynasty (2020) [Ru/Multi] (0.3.1.4/dlc) [Early Access] GOG trackeroc.org 6.11 GB
[Profile] [PM]
Display posts from previous:    
Reply to topic

The time now is: Today 07:51

All times are GMT + 4 Hours



You cannot post new topics in this forum
You cannot reply to topics in this forum
You cannot edit your posts in this forum
You cannot delete your posts in this forum
You cannot vote in polls in this forum
You cannot attach files in this forum
You can download files in this forum