Проклятие плачущей: Безвременье / The Nameless Days (2022) WEB-DLRip-AVC | Р скачать торрент

Reply to topic


DL-List and Torrent activity [Update пиров]
Size:  1.8 GB   |    Registered:  3 months 6 days   |    Completed:  0 times
DL-List: None

Seeders:

Username ULR UL DL UL speed DL speed
azog 0 - 1.8 GB - 864 KB/s
Anonymous 0.3 577 MB 1.8 GB - -
Anonymous 0 - 1.8 GB - 4 MB/s

Leechers:

Username % UL DL UL speed DL speed
Anonymous 99 - - - -
Anonymous 99 2 MB 1.79 GB 7 KB/s 6 MB/s
Anonymous 35 6 MB 349 MB 1 KB/s 83 KB/s
Anonymous 3 - - - -
Anonymous 3 73 KB 61 MB 0 KB/s 26 KB/s
Anonymous 0 - - - -
shows data only for the current session
 
 
 
 
 
Author Message

.:Rtuty:. ®

Longevity: 4 months 12 days

Posts: 31

Location: Москва


Post 29-Jun-2022 19:53

[Quote]

Информация о фильме- Название: Проклятие плачущей: Безвременье
Оригинальное название: The Nameless Days
Год выпуска: 2022
Страна/Студия: США / Vertical Entertainment
Жанр: Ужасы
Продолжительность: 01:31:08
Субтитры: русские (на места без перевода) [вшитые неотключаемые]
Перевод: Профессиональный (многоголосый закадровый) [Велес]-Режиссер: Эндрю Мечэм, Мэттью Уэдон--В ролях: Элли Иоаннидес, Чарльз Халфорд, Эмбир Мишель, Алехандро Акара, Эндрю Роач, Трей Уорнер, Эшли Мэриэн Рамос, Али Кинкейд, Джефф Дикамор, Сила Агавале-Описание: В календаре ацтеков существуют пять дней, которые не относятся ни к одному месяцу. Эти дни именуются безвременьем. По местным легендам в это время самые опасные демоны из другого мира охотятся за человеческими душами. Единственный способ пережить безвременье — разгадать, что на самом деле ищут демоны.--Информация о файле
Качество: WEB-DLRip-AVC
Формат: MKV
Видео кодек: x264
Аудио кодек: AC3
Видео: MPEG-4 AVC/[email protected], 2640 Кбит/сек, 1024x576 (1.778) at 24.000 fps
Аудио: Русский: AC3, 2 ch, 192 Кбит/сек--

Медиа Инфо

Общее
Уникальный идентификатор : 280844241164875805008525643582682173832 (0xD348A224FBA032F0932B4A18237C1188)
Полное имя : F:1.ФИЛЬМЫ�1. ФИЛЬМЫПроклятие плачущей Безвременье The Nameless Days (2022)Proklyatiye plachushchey Bezvremenye The Nameless Days (2022) WEB-DLRip-AVC.mkv
Формат : Matroska
Версия формата : Version 4
Размер файла : 1,80 Гбайт
Продолжительность : 1 ч. 31 м.
Общий поток : 2 822 Кбит/сек
Программа кодирования : Lavf
Библиотека кодирования : Lavf
Авторское право : *=Z=*
ErrorDetectionType : Per level 1
Attachments : poster.png
Язык : und
Видео
Идентификатор : 1
Формат : AVC
Формат/Информация : Advanced Video Codec
Профиль формата : [email protected]
Настройки формата : CABAC / 14 Ref Frames
Параметр CABAC формата : Да
Параметр RefFrames формата : 14 кадров
Идентификатор кодека : V_MPEG4/ISO/AVC
Продолжительность : 1 ч. 31 м.
Битрейт : 2 640 Кбит/сек
Ширина : 1 024 пикселя
Высота : 576 пикселей
Соотношение сторон : 16:9
Режим частоты кадров : Постоянный
Частота кадров : 24,000 кадра/сек
Цветовое пространство : YUV
Субдискретизация насыщенности : 4:2:0
Битовая глубина : 8 бит
Тип развёртки : Прогрессивная
Бит/(Пиксели*Кадры) : 0.186
Размер потока : 1,64 Гбайт (91%)
Заголовок : USA / Vertical Entertainment
Библиотека кодирования : x264 core 159 r2991 1771b55
Настройки программы : cabac=1 / ref=14 / deblock=1:-3:-3 / analyse=0x3:0x133 / me=umh / subme=10 / psy=1 / psy_rd=1.00:0.15 / mixed_ref=1 / me_range=32 / chroma_me=0 / trellis=2 / 8x8dct=1 / cqm=0 / deadzone=21,11 / fast_pskip=1 / chroma_qp_offset=-2 / threads=17 / lookahead_threads=4 / sliced_threads=0 / nr=0 / decimate=0 / interlaced=0 / bluray_compat=0 / constrained_intra=0 / bframes=10 / b_pyramid=2 / b_adapt=2 / b_bias=10 / direct=3 / weightb=1 / open_gop=0 / weightp=2 / keyint=240 / keyint_min=24 / scenecut=40 / intra_refresh=0 / rc_lookahead=60 / rc=2pass / mbtree=0 / bitrate=2640 / ratetol=1.0 / qcomp=0.70 / qpmin=1 / qpmax=69 / qpstep=4 / cplxblur=20.0 / qblur=0.5 / vbv_maxrate=5000 / vbv_bufsize=4000 / nal_hrd=none / filler=0 / ip_ratio=1.40 / pb_ratio=1.30 / aq=1:0.60
Default : Да
Forced : Нет
Цветовой диапазон : Limited
Основные цвета : BT.709
Характеристики трансфера : BT.709
Коэффициенты матрицы : BT.709
Аудио
Идентификатор : 2
Формат : AC-3
Формат/Информация : Audio Coding 3
Коммерческое название : Dolby Digital
Идентификатор кодека : A_AC3
Продолжительность : 1 ч. 31 м.
Вид битрейта : Постоянный
Битрейт : 192 Кбит/сек
Каналы : 2 канала
Channel layout : L R
Частота : 48,0 КГц
Частота кадров : 31,250 кадров/сек (1536 SPF)
Битовая глубина : 32 бит
Метод сжатия : С потерями
Размер потока : 125 Мбайт (7%)
Заголовок : MVO (Veles)
Язык : Russian
Service kind : Complete Main
Default : Да
Forced : Да

Скриншоты



Смотреть онлайн

[trackeroc.org].34826.torrent  Магнет ссылка
Torrent: Registered   [ 2022-06-29 19:53 ]

Скачать торрент

19 KB

Status: checked
Completed: 67 times
Size: 1.8 GB
 

trackeroc.info (29-июн-22)

Similar torrent
Forum Topic Author Size
Квесты, я ищу, Поиск предметов, Hidden Object Connected Hearts: The Full Moon Curse / Связанные сердца: Проклятие полнолуния [RUS] (2022) trackeroc.info 1.51 GB
Квесты, я ищу, Поиск предметов, Hidden Object Royal Legends: Marshes Curse / Королевские легенды: Проклятие болот [RUS / ENG] (2021) trackeroc.info 1.39 GB
Квесты, я ищу, Поиск предметов, Hidden Object Проклятие в сумерках. Похититель душ / Curse at Twilight. Thief of Souls (2011) PC trackeroc.info 136 MB
Квесты, я ищу, Поиск предметов, Hidden Object Enchanted Kingdom 9 Frost Curse / Зачарованное Королевство: Ледяное проклятие [RUS / ENG] (2021) trackeroc.info 1.2 GB

_________________
[Profile] [PM]
Display posts from previous:    
Reply to topic

The time now is: Today 02:30

All times are GMT + 4 Hours



You cannot post new topics in this forum
You cannot reply to topics in this forum
You cannot edit your posts in this forum
You cannot delete your posts in this forum
You cannot vote in polls in this forum
You cannot attach files in this forum
You can download files in this forum