Приключения Ам-Няма / Om Nom Stories (2011-2019) WEB-DLRip [H.264/720p-LQ] (сезон 1-12, серии 1-120 из 120 + БОНУСЫ) скачать торрент

Reply to topic


DL-List and Torrent activity [Update пиров]
Size:  6 GB   |    Registered:  1 year 9 months   |    Completed:  0 times
Seeders:  11  [  848 KB/s  ]   Leechers:  18  [  2 MB/s  ]   Show peers in full details
 
 
 
 
Author Message

Pro100Moder ®

Longevity: 6 years 11 months

Posts: 2534

Location: Earth


Post 16-Mar-2019 09:03

[Quote]

Приключения Ам-Няма / Om Nom Stories - Жанр: Детский, Компьютерная анимация
Производство: Россия / Toonbox Studio
Режиссер: Артур Меркулов
Персонажи: Ам-Ням
Описание:
Яркий, веселый и очень динамичный мультсериал, снятый по мотивам популярной видеоигры-головоломки Cut the Rope.
Ам ням - именно так зовут это милое создание, что с неподдельным удовольствием поглощало конфетки в игре "Cut the Rope". Если вы помните, он просто сидел на месте, а конфетки, доставляемые нашими пальцами, сами падали ему в рот. В этом же мультфильме он сам охотится за сладостями, проявляю недюжинную смекалку и ловкость. В этом мультике вы узнаете много нового из жизни этого существа, а также других созданий, что населяют мир в котором он живёт.

Возраст: 6+ (зрителям, достигшим 6 лет)
Рейтинг MPAA: PG (рекомендуется присутствие родителей)
Релиз от: Natasha77 (NoNaMe Club)
Продолжительность: 00:01:30 - 00:02:30 серия
Качество видео: WEB-DLRip
Перевод: Не требуется (Русский)
Субтитры: Отсутствуют
Видео: AVC/H.264, 1280x720, ~2000 kbps
Аудио: Русский: AAC, 2 ch, 192 Kbps

MediaInfo

Код:
General
Format                      : Matroska
Format version              : Version 4 / Version 2
File size                   : 20.3 MiB
Duration                    : 2 min
Overall bit rate            : 1 218 kb/s
Encoded date                : UTC 2017-01-31 12:39:48
Writing application         : mkvmerge v9.8.0 ('Kuglblids') 32bit
Writing library             : libebml v1.3.4 + libmatroska v1.4.5
Video
ID                          : 1
Format                      : AVC
Format/Info                 : Advanced Video Codec
Format profile              : [email protected]
Format settings, CABAC      : Yes
Format settings, ReFrames   : 3 frames
Codec ID                    : V_MPEG4/ISO/AVC
Duration                    : 2 min
Bit rate                    : 1 090 kb/s
Width                       : 1 280 pixels
Height                      : 720 pixels
Display aspect ratio        : 16:9
Frame rate mode             : Constant
Frame rate                  : 25.000 FPS
Color space                 : YUV
Chroma subsampling          : 4:2:0
Bit depth                   : 8 bits
Scan type                   : Progressive
Bits/(Pixel*Frame)          : 0.047
Stream size                 : 18.2 MiB (89%)
Default                     : Yes
Forced                      : No
Color range                 : Limited
Color primaries             : BT.709
Transfer characteristics    : BT.709
Matrix coefficients         : BT.709
Audio
ID                          : 2
Format                      : AAC
Format/Info                 : Advanced Audio Codec
Format profile              : LC
Codec ID                    : A_AAC
Duration                    : 2 min
Bit rate                    : 126 kb/s
Channel(s)                  : 2 channels
Channel positions           : Front: L R
Sampling rate               : 44.1 kHz
Frame rate                  : 43.066 FPS (1024 spf)
Compression mode            : Lossy
Stream size                 : 2.10 MiB (10%)
Default                     : Yes
Forced                      : No
-Скриншоты:


Смотреть онлайн

[trackeroc.org].27897.torrent  Магнет ссылка
Torrent: Registered   [ 2019-06-23 02:28 ]

Скачать торрент

59 KB

Status: checked
Completed: 560 times
Size: 6 GB
 

www.trackeroc.ru (16-мар-19), SoulEater67 (06-фев-21)

Similar torrent
Forum Topic Author Size
Зарубежные сериалы Леденящие душу приключения Сабрины / Chilling Adventures of Sabrina [Сезон 4 серии 1-8 из 8] (2020) IdeaFilm trackeroc.org 5.87 GB
Сasual games, Тайм менеджмент Adventures of Megara 2: Antigone and the Living Toys / Приключения Мегары 2. Антигона и ожившие игрушки + Adventures of Megara: Demeter's Cat astrophe / Приключения Мегары 1-2 (2020) (RUS/ENG) trackeroc.org 699 MB
Комедии Невероятные приключения американца в Армении / Lost and Found in Armenia (2012) DVDRip Pro100Moder 1.46 GB
Отечественные Мультсериалы Новые приключения кота Леопольда (2015) WEB-DLRip (серии 01-13 из 13) Pro100Moder 2.22 GB
Отечественные Мультсериалы Приключения кота Леопольда (1975-1987) BDRip (серии 1-10 из 10) Pro100Moder 4.33 GB

_________________
[Profile] [PM]
Display posts from previous:    
Reply to topic

The time now is: Today 20:25

All times are GMT + 4 Hours



You cannot post new topics in this forum
You cannot reply to topics in this forum
You cannot edit your posts in this forum
You cannot delete your posts in this forum
You cannot vote in polls in this forum
You cannot attach files in this forum
You can download files in this forum