Пирамида / The Pyramid (2014) HDRip [H.264] скачать торрент

Reply to topic

DL-List and Torrent activity [Update пиров]
Size:  1.46 GB   |    Registered:  18 days   |    Completed:  0 times

Seeder not seen: Never

 
 
 
 
 
Author Message

Captain ®

Longevity: 6 years 5 months

Posts: 2557

Location: Earth


Post 08-Sep-2020 13:41

[Quote]

Пирамида / The Pyramid «Живым не уйти»- Производство: США, Марокко / 20th Century Fox Film Corporation, Fox International Productions (FIP), Aja / Levasseur Productions, Mark Canton Productions, Sahara Productions, Silvatar Media
Жанр: Ужасы, боевик, триллер, детектив, приключения
Режиссер: Грегори Левассёр
Продюсер: Александр Ажа, Марк Кантон, Чади Эли Маттар
Актеры: Эшли Хиншоу, Дэнис О`Харе, Джеймс Бакли, Криста Никола, Амир Камиаб, Файкал Аттугуй, Филип Шелли, Аит Хаму Амин, Омар Бенбрахим, Джозеф Бедделем
Описание:
Группа американских археологов ведет раскопки гробницы, затерянной в египетской пустыне. Проникнув вглубь пирамиды, они оказываются в лабиринте катакомб, откуда нет выхода. Чем больше они жаждут вновь увидеть солнечный свет, тем сильнее сгущается тьма; чем сильнее смыкается ловушка, тем отчетливее они понимают, что не они ищут нечто, а Нечто охотится на них.

Дата мировой премьеры: 4 декабря 2014
Дата российской премьеры: 4 декабря 2014
Релиз от: FAGOT100
Продолжительность: 01:28:52
Качество видео: HDRip
Перевод: Дублированный (iTunes)
Субтитры: отсутствуют
Видео: AVC, 1024x428 (2.35:1), 23.976 fps, 1 968 Kbps (0.187 bit/pixel)
Аудио: AC-3, 48.0 KHz, 6 ch, 384 Kbps, CBR (Russian)

MediaInfo:

Код:
Формат                                   : Matroska
Версия формата                           : Version 2
Размер файла                             : 1,46 Гбайт
Продолжительность                        : 1 ч. 28 м.
Общий поток                              : 2351 Кбит/сек
Дата кодирования                         : UTC 2015-04-24 22:03:54
Программа кодирования                    : mkvmerge v5.3.0 ('I could have danced') built on Feb  9 2012 10:38:07
Библиотека кодирования                   : libebml v1.2.3 + libmatroska v1.3.0
Attachment                               : Yes
Видео
Идентификатор                            : 1
Формат                                   : AVC
Формат/Информация                        : Advanced Video Codec
Профиль формата                          : [email protected]
Параметр CABAC формата                   : Да
Параметр ReFrames формата                : 10 кадров
Идентификатор кодека                     : V_MPEG4/ISO/AVC
Продолжительность                        : 1 ч. 28 м.
Битрейт                                  : 1968 Кбит/сек
Ширина                                   : 1024 пикселя
Высота                                   : 428 пикселей
Соотношение сторон                       : 2,40:1
Режим частоты кадров                     : Постоянный
Частота кадров                           : 23,976 кадра/сек
Цветовое пространство                    : YUV
Субдискретизация насыщенности            : 4:2:0
Битовая глубина                          : 8 бит
Тип развёртки                            : Прогрессивная
Бит/(Пиксели*Кадры)                      : 0.187
Размер потока                            : 1,19 Гбайт (82%)
Библиотека кодирования                   : x264 core 142 r2431 ac76440
Настройки программы                      : cabac=1 / ref=10 / deblock=1:-3:-3 / analyse=0x3:0x133 / me=umh / subme=10 / psy=1 / psy_rd=1.00:0.10 / mixed_ref=1 / me_range=32 / chroma_me=1 / trellis=2 / 8x8dct=1 / cqm=0 / deadzone=21,11 / fast_pskip=1 / chroma_qp_offset=-3 / threads=12 / lookahead_threads=2 / sliced_threads=0 / nr=0 / decimate=0 / interlaced=0 / bluray_compat=0 / constrained_intra=0 / bframes=8 / b_pyramid=2 / b_adapt=2 / b_bias=0 / direct=3 / weightb=1 / open_gop=0 / weightp=2 / keyint=240 / keyint_min=23 / scenecut=40 / intra_refresh=0 / rc=2pass / mbtree=0 / bitrate=1968 / ratetol=1.0 / qcomp=0.60 / qpmin=0 / qpmax=69 / qpstep=4 / cplxblur=20.0 / qblur=0.5 / ip_ratio=1.40 / pb_ratio=1.30 / aq=1:1.00
Язык                                     : English
Default                                  : Да
Forced                                   : Нет
Аудио
Идентификатор                            : 2
Формат                                   : AC-3
Формат/Информация                        : Audio Coding 3
Расширение режима                        : CM (complete main)
Параметр Endianness формата              : Big
Идентификатор кодека                     : A_AC3
Продолжительность                        : 1 ч. 28 м.
Вид битрейта                             : Постоянный
Битрейт                                  : 384 Кбит/сек
Каналы                                   : 6 каналов
Расположение каналов                     : Front: L C R, Side: L R, LFE
Частота                                  : 48,0 КГц
Битовая глубина                          : 16 бит
Метод сжатия                             : С потерями
Размер потока                            : 244 Мбайт (16%)
Язык                                     : Russian
Default                                  : Да
Forced                                   : Нет
Меню
00:00:00.000                             : en:00:00:00.000
00:03:06.728                             : en:00:03:06.728
00:06:55.582                             : en:00:06:55.582
00:10:30.129                             : en:00:10:30.129
00:12:45.348                             : en:00:12:45.348
00:15:36.602                             : en:00:15:36.602
00:19:16.072                             : en:00:19:16.072
00:23:56.018                             : en:00:23:56.018
00:27:03.664                             : en:00:27:03.664
00:31:27.010                             : en:00:31:27.010
00:34:00.455                             : en:00:34:00.455
00:36:29.854                             : en:00:36:29.854
00:38:03.198                             : en:00:38:03.198
00:41:04.879                             : en:00:41:04.879
00:43:01.579                             : en:00:43:01.579
00:46:38.838                             : en:00:46:38.838
00:48:49.593                             : en:00:48:49.593
00:52:33.317                             : en:00:52:33.317
00:55:36.959                             : en:00:55:36.959
00:58:21.540                             : en:00:58:21.540
01:02:53.937                             : en:01:02:53.937
01:07:24.415                             : en:01:07:24.415
01:09:40.051                             : en:01:09:40.051
01:11:47.762                             : en:01:11:47.762
01:15:47.001                             : en:01:15:47.001
01:18:32.458                             : en:01:18:32.458
01:21:48.195                             : en:01:21:48.195
01:23:52.694                             : en:01:23:52.694
-Скриншоты:


Смотреть онлайн

[trackeroc.org].31776.torrent  Магнет ссылка
Torrent: Registered   [ 2020-09-08 13:41 ]

Скачать торрент

15 KB

Status: checked
Completed: 10 times
Size: 1.46 GB
 

trackeroc.org (08-сен-20)


_________________
[Profile] [PM]
Display posts from previous:    
Reply to topic

The time now is: Today 10:45

All times are GMT + 4 Hours



You cannot post new topics in this forum
You cannot reply to topics in this forum
You cannot edit your posts in this forum
You cannot delete your posts in this forum
You cannot vote in polls in this forum
You cannot attach files in this forum
You can download files in this forum