Оно / It Follows (2014) HDRip скачать торрент

Reply to topic

DL-List and Torrent activity [Update пиров]
Size:  1.37 GB   |    Registered:  1 month 8 days   |    Completed:  0 times

Seeder not seen: Never

 
 
 
 
 
Author Message

Moder ®

Longevity: 6 years 7 months

Posts: 2536

Location: Earth


Post 28-Oct-2020 02:33

[Quote]

Оно / It Follows «Следует за тобой»- Производство: США / Animal Kingdom, Northern Lights Films, Two Flints
Жанр: ужасы, триллер, детектив
Режиссер: Дэвид Роберт Митчелл
Продюсер: Ребекка Грин, Дэвид Каплан, Эрик Роммесмо
Актеры: Кейр Гилкрист, Лорен Басс, Оливия Луккарди, Лили Сепе, Майка Монро, Джейк Вири, Дэниэл Дзоватто, Чарльз Гертнер, Бэйли Спрай
Описание:
После сексуальной связи 19-летнюю девушку по имени Джей начинают мучать странные видения и непреодолимое чувство того, что кто-то или что-то за ней следит...

Рейтинг MPAA: R - Детям до 17 лет обязательно присутствие родителей
Дата мировой премьеры: 17 мая 2014
Дата российской премьеры: 25 июня 2015, «Экспонента»
Продолжительность: 01:40:12
Качество: HDRip
Перевод: Профессиональный (полное дублирование) (iTunes Russia)
Субтитры: Отсутствуют
Видео: XviD, 1560 Кбит/с, 720x304
Аудио: AC3, 6 ch, 384 Кбит/с

MediaInfo

Код:
General
Complete name                            : It Follows.HDRip.D.2014.1 37 gb.avi
Format                                   : AVI
Format/Info                              : Audio Video Interleave
File size                                : 1.37 GiB
Duration                                 : 1h 40mn
Overall bit rate                         : 1 952 Kbps
Writing application                      : VirtualDubMod 1.5.10.2 (build 2540/release)
Writing library                          : VirtualDubMod build 2540/release
Video
ID                                       : 0
Format                                   : MPEG-4 Visual
Format profile                           : Advanced [email protected]
Format settings, BVOP                    : 2
Format settings, QPel                    : No
Format settings, GMC                     : No warppoints
Format settings, Matrix                  : Default (MPEG)
Codec ID                                 : XVID
Codec ID/Hint                            : XviD
Duration                                 : 1h 40mn
Bit rate                                 : 1 559 Kbps
Width                                    : 720 pixels
Height                                   : 304 pixels
Display aspect ratio                     : 2.35:1
Frame rate                               : 23.976 fps
Color space                              : YUV
Chroma subsampling                       : 4:2:0
Bit depth                                : 8 bits
Scan type                                : Progressive
Compression mode                         : Lossy
Bits/(Pixel*Frame)                       : 0.297
Stream size                              : 1.09 GiB (80%)
Writing library                          : XviD 1.2.1 (UTC 2008-12-04)
Audio
ID                                       : 1
Format                                   : AC-3
Format/Info                              : Audio Coding 3
Mode extension                           : CM (complete main)
Format settings, Endianness              : Big
Codec ID                                 : 2000
Duration                                 : 1h 40mn
Bit rate mode                            : Constant
Bit rate                                 : 384 Kbps
Channel count                            : 6 channels
Channel positions                        : Front: L C R, Side: L R, LFE
Sampling rate                            : 48.0 KHz
Bit depth                                : 16 bits
Compression mode                         : Lossy
Stream size                              : 275 MiB (20%)
Alignment                                : Split accross interleaves
Interleave, duration                     : 42 ms (1.00 video frame)
Interleave, preload duration             : 500 ms
-Скриншоты:


Смотреть онлайн

[trackeroc.org].32092.torrent  Магнет ссылка
Torrent: Registered   [ 2020-10-28 02:33 ]

Скачать торрент

2 KB

Status: checked
Completed: 102 times
Size: 1.37 GB
 

trackeroc.org (28-окт-20)


_________________
[Profile] [PM]
Display posts from previous:    
Reply to topic

The time now is: Today 21:07

All times are GMT + 4 Hours



You cannot post new topics in this forum
You cannot reply to topics in this forum
You cannot edit your posts in this forum
You cannot delete your posts in this forum
You cannot vote in polls in this forum
You cannot attach files in this forum
You can download files in this forum