Няня / The Babysitter (2017) BDRip скачать торрент

Reply to topic

DL-List and Torrent activity [Update пиров]
Size:  1.46 GB   |    Registered:  19 days   |    Completed:  0 times

Seeder not seen: Never

 
 
 
 
 
Author Message

Captain ®

Longevity: 6 years 5 months

Posts: 2557

Location: Earth


Post 08-Sep-2020 10:04

[Quote]

Няня / The Babysitter
«Dream girls can be a nightmare»
- Производство: США / Wonderland Sound and Vision, Boies/Schiller Film Group, New Line Cinema
Жанр: ужасы, комедия
Режиссер: МакДжи / McG
Актеры: Джуда Льюис, Самара Уивинг, Робби Амелл, Хана Мэй Ли, Белла Торн, Эмили Элин Линд, Эндрю Бэчелор, Даг Хейли, Лесли Бибб, Кен Марино, Сэмюэл Гилберт, Захари Александр Райс
Описание:
Коул по уши влюблён в свою няню Би - красивую, весёлую, умную и уверенную в себе девушку. Однажды ночью мальчишка решает не ложиться спать и проследить за ней. Но события принимают неожиданный поворот: няня оказывается хладнокровной убийцей, служащей самому дьяволу.

премьера (мир): 13 октября 2017
Релиз от: MegaPeer
Продолжительность: 01:25:13
Качество видео: BDRip
Перевод: Многоголосый любительский (Jaskier) Присутствует ненормативная лексика
Субтитры: нет
Видео: Xvid, 720x304, ~2058 kbps
Аудио: AC3, 6 ch, 384 kbps

MediaInfo

Код:
General
Complete name                            : The.Babysitter.2017.BDRip.1.46Gb..Jaskier.MegaPeer.avi
Format                                   : AVI
Format/Info                              : Audio Video Interleave
File size                                : 1.46 GiB
Duration                                 : 1 h 25 min
Overall bit rate                         : 2 452 kb/s
Writing application                      : VirtualDubMod 1.5.10.3 | www.virtualdub-fr.org || (build 2550/release)
Copyright                                : MegaPeer
Video
ID                                       : 0
Format                                   : MPEG-4 Visual
Format profile                           : Advanced [email protected]
Format settings                          : BVOP1 / Custom Matrix
Format settings, BVOP                    : 1
Format settings, QPel                    : No
Format settings, GMC                     : No warppoints
Format settings, Matrix                  : Custom
Codec ID                                 : XVID
Codec ID/Hint                            : XviD
Duration                                 : 1 h 25 min
Bit rate                                 : 2 058 kb/s
Width                                    : 720 pixels
Height                                   : 304 pixels
Display aspect ratio                     : 2.35:1
Frame rate                               : 23.976 (24000/1001) FPS
Color space                              : YUV
Chroma subsampling                       : 4:2:0
Bit depth                                : 8 bits
Scan type                                : Progressive
Compression mode                         : Lossy
Bits/(Pixel*Frame)                       : 0.392
Stream size                              : 1.23 GiB (84%)
Writing library                          : XviD 69
Audio
ID                                       : 1
Format                                   : AC-3
Format/Info                              : Audio Coding 3
Commercial name                          : Dolby Digital
Codec ID                                 : 2000
Duration                                 : 1 h 25 min
Bit rate mode                            : Constant
Bit rate                                 : 384 kb/s
Channel(s)                               : 6 channels
Channel layout                           : L R C LFE Ls Rs
Sampling rate                            : 48.0 kHz
Frame rate                               : 31.250 FPS (1536 SPF)
Compression mode                         : Lossy
Stream size                              : 234 MiB (16%)
Alignment                                : Split across interleaves
Interleave, duration                     : 42  ms (1.00 video frame)
Interleave, preload duration             : 500  ms
Service kind                             : Complete Main
-Скриншоты:


Смотреть онлайн

[trackeroc.org].31767.torrent  Магнет ссылка
Torrent: Registered   [ 2020-09-08 10:04 ]

Скачать торрент

30 KB

Status: checked
Completed: 8 times
Size: 1.46 GB
 

trackeroc.org (08-сен-20)

Similar torrent
Forum Topic Author Size
Комедии Няня. Королева проклятых / The Babysitter: Killer Queen (2020) WEBRip [H.264.1080p-LQ] [DVO] [PR] Captain 4.12 GB
Комедии Няня / The Babysitter (2017) WEBRip [H.264/720p] [MVO] HDRezka studio Captain 2.93 GB

_________________
[Profile] [PM]
Display posts from previous:    
Reply to topic

The time now is: Today 12:04

All times are GMT + 4 Hours



You cannot post new topics in this forum
You cannot reply to topics in this forum
You cannot edit your posts in this forum
You cannot delete your posts in this forum
You cannot vote in polls in this forum
You cannot attach files in this forum
You can download files in this forum