Ну погоди! (1969-2006) DVDRip (серии 01-20 из 20) скачать торрент

Reply to topic


DL-List and Torrent activity [Update пиров]
Size:  2.9 GB   |    Registered:  1 year 4 months   |    Completed:  0 times
Seeders:  53  [  234 KB/s  ]   Leechers:  9  [  21 MB/s  ]   Show peers in full details
 
 
 
 
Author Message

HOPE ®

Longevity: 6 years 11 months

Posts: 1239

Location: Урал


Post 18-Jul-2015 20:01

[Quote]

Ну погоди!
«Ну, заяц! Ну, погоди!»
- Жанр: Мультфильм, Детский, Рисованная анимация, Короткометражка
Производство: СССР, Россия / Союзмультфильм, AMT
Режиссер: Вячеслав Котёночкин, Юрий Бутырин, Владимир Тарасов
Актеры: Анатолий Дмитриевич Папанов, Клара Румянова, Игорь Христенко, Ольга Зверева
Описание:
Веселые приключения неразлучной парочки - хулигана Волка и смышленого Зайца. Любимые с детства сцены погонь, ссор и примирений, шутки и мелодии вновь порадуют вас, теперь уже в современном цифровом качестве. Прекрасно созданные образы принесли многолетнюю популярность мультипликационному сериалу, созданию которого замечательный мультипликатор Вячеслав Котеночкин посвятил почти 20 лет своей жизни.В конце 2005 года состоялась премьера 19 выпуска фильма, в постановке Алексея Котёночкина, сына Вячеслава Котёночкина, созданного на студии «Кристмас Филмз» В новом выпуске волка озвучил известный сатирик-пародист Игорь Христенко, чьим голосом говорили Ельцин, Зюганов и другие деятели в программе «Куклы». А Зайца озвучила актриса Ольга Зверева. При этом, как уточнил режиссёр, «цель сымитировать голоса Клары Румяновой и Анатолия Папанова не ставилась, новые актёры должны быть просто аутентичны своим персонажам». 16 сентября 2005 года в Москве прошел костюмированный парад в честь возрождения «Ну, погоди!» По словам Алексея Котёночкина, создавшего 20 выпуск, больше работ над фильмом он продолжать не будет. По его словам, «невозможно бесконечно плодить эти серии». При этом он оговорился, что «если и будет какое-то продолжение, то это будет совсем другое кино и другие волки и заяц». По словам художника, разработанный в 1970-е года образ волка-хулигана, поклонника Высоцкого и Beatles давно устарел. Котёночкин говорит, что в новом сериале о приключениях волка и зайца ему хотелось бы «уйти от старой стилистики», добавить новых персонажей и разработать принципиально новый сюжет. Он также не исключил, что в ближайшем будущем выйдет полнометражный мультфильм «Ну, погоди!». По словам художника, проект обсуждается с инвесторами.

Возраст: 0+ (для любой зрительской аудитории)
Продолжительность: ~00:10:00 серия
Качество видео: DVDRip
Перевод: Не требуется (Русский)
Видео: Xvid, 720x544 (640x480), ~1601 (1893) kbps
Аудио: AC-3, 48 kHz, 2 ch, ~128.00 kbps

MediaInfo:

Код:
General
Format : AVI
Format/Info : Audio Video Interleave
File size : 151 MiB
Duration : 9mn 31s
Overall bit rate : 2 222 Kbps
Writing application : VirtualDubMod 1.5.4.1 (build 2178/release)
Writing library : VirtualDubMod build 2178/release
Video #0
ID : 0
Format : MPEG-4 Visual
Format profile : Advanced [email protected]
Format settings, BVOP : 1
Format settings, QPel : No
Format settings, GMC : No warppoints
Format settings, Matrix : Custom
Codec ID : XVID
Codec ID/Hint : XviD
Duration : 9mn 31s
Bit rate : 1 769 Kbps
Width : 720 pixels
Height : 544 pixels
Display aspect ratio : 4:3
Frame rate : 25.000 fps
Color space : YUV
Chroma subsampling : 4:2:0
Bit depth : 8 bits
Scan type : Progressive
Compression mode : Lossy
Bits/(Pixel*Frame) : 0.181
Stream size : 121 MiB (80%)
Writing library : XviD 1.2.0.dev47 (UTC 2006-11-01)
Audio #1
ID : 1
Format : AC-3
Format/Info : Audio Coding 3
Mode extension : CM (complete main)
Format settings, Endianness : Big
Codec ID : 2000
Duration : 9mn 28s
Bit rate mode : Constant
Bit rate : 448 Kbps
Channel(s) : 6 channels
Channel positions : Front: L C R, Side: L R, LFE
Sampling rate : 48.0 KHz
Bit depth : 16 bits
Compression mode : Lossy
Stream size : 30.4 MiB (20%)
Alignment : Split accross interleaves
Interleave, duration : 96 ms (2.41 video frames)
Interleave, preload duration : 96 ms
Language : Russian

Список серий:

01. В городе и на пляже (1969)
02. В городском парке (1970)
03. На дороге (1971)
04. На стадионе (1971)
05. В городе (1972)
06. В деревне (1973)
07. На корабле (1973)
08. Новый год (1974)
09. В телестудии (1976)
10. На стройке (1976)
11. В цирке (1977)
12. В музее (1978)
13. Олимпиада 80 (1980)
14. Дом юного техника (1984)
15. Дом культуры (1985)
16. В сказке (1986)
17. На острове (1993)
18. Супермаркет (1994)
19. На курорте (2005)
20. На даче (2006)
-Скриншоты:


Смотреть онлайн

[trackeroc.org].7093.torrent  Магнет ссылка
 GOLD TORRENT! DOWNLOAD TRAFFIC DOES NOT CONSIDER! 
Torrent: Registered   [ 2019-12-09 23:23 ]

Скачать торрент

17 KB

Status: checked
Completed: 396 times
Size: 2.9 GB
 

www.trackeroc.ru (18-июл-15), Pro100Moder (19-июл-15)

Similar torrent
Forum Topic Author Size
Отечественные Мультсериалы Лунтик и его друзья (2006-2020) (сезон 1-9, серии 1-521 из 539) www.trackeroc.ru 27.09 GB
Зарубежные Мультсериалы Тетрадь Смерти / Death Note [2006, TV, 37 эп. + 2 SP] BDrip 720p raw+rus www.trackeroc.ru 18.96 GB
Журналы Подшивка журналов | Крокодил (1924-1948,1951,1952,1954-56,1969-1977,1979,1982,1988,1989,1991) [PDF, DjVu] Pro100Moder 8.77 GB
Сборники игр, Антологии Anthology The Lord of the Rings: The Battle for Middle-earth / Антология Властелин Колец: Битва за Средиземье (2004-2006) [Ru/En] (1.03/1.06/2.01) License Pro100Moder 20.28 GB
Racing FlatOut 2 (2006) [ENG/Multi] (1.2) License GOG www.trackeroc.ru 2.58 GB
[Profile] [PM]
Display posts from previous:    
Reply to topic

The time now is: Today 20:18

All times are GMT + 4 Hours



You cannot post new topics in this forum
You cannot reply to topics in this forum
You cannot edit your posts in this forum
You cannot delete your posts in this forum
You cannot vote in polls in this forum
You cannot attach files in this forum
You can download files in this forum