Нарушители / The Outlaws / Сезон: 1 / Серии: 1-5 из 6 скачать торрент

Reply to topic


DL-List and Torrent activity [Update пиров]
Size:  4.59 GB   |    Registered:  8 days   |    Completed:  0 times
Seeders:  3  [  151 KB/s  ]   Show peers in full details
 
 
 
 
Author Message

trackeroc.info ®

Longevity: 7 years 7 months

Posts: 10850

Location: trackeroc.org trackeroc.info trackeroc.ml trackeroc.ga trackeroc.space


Post 24-Nov-2021 11:35

[Quote]

Нарушители | The Outlaws- Год выпуска: 2021
Страна: Великобритания
Жанр: Триллер, драма, комедия, криминал
Продолжительность: ~ 00:58:00-Режиссёр: Стивен Мерчант, Джон Батлер-В ролях: Кристофер Уокен, Элинор Томлинсон, Стивен Мерчант, Даррен Бойд, Рианна Баррето, Чарльз Бабалола, Гамба Коул, Клер Перкинс, Джеймс Нельсон-Джойс, Грэйс Калдер-Описание:
Семь преступников из разных слоёв общества отбывают наказание в Бристоле, выполняя общественные работы. Сначала они кажутся совершенно типичными представителями своего круга, но постепенно история каждого раскрывает его личность и прошлое, и однажды им придется объединиться, чтобы защитить одного из своих от банды.
Сэмпл: http://multi-up.com/1285899
Перевод: Профессиональный (двухголосый закадровый) | Кубик в Кубе
Качество: WEB-DLRip
Формат: AVI
Видео: XviD, 720x304 (2,35:1), 25,000 кадров/сек, 1700 Кбит/сек
Аудио Rus: AC3, 48,0 kHz, 2 ch, 192 Кбит/сек | Кубик в Кубе
Аудио Rus: AC3, 48,0 kHz, 2 ch, 192 Кбит/сек | Кубик в Кубе 18+ | Серии: 2-4
Аудио Eng: AC3, 48,0 kHz, 2 ch, 192 Кбит/сек
Субтитры: Русские (Кинопоиск HD), английские
Реклама: Отсутствует-

MediaInfo

Общее
Полное имя : D:\The Outlaws (Season 1) WEB-DLRip\The.Outlaws.S01E02.WEB-DLRip.RGzsRutracker.[Wentworth_Miller].avi
Формат : AVI
Формат/Информация : Audio Video Interleave
Размер файла : 936 Мбайт
Продолжительность : 57 м. 1 с.
Общий поток : 2 295 Кбит/сек
Программа кодирования : VirtualDubMod 1.5.10.3 | www.virtualdub-fr.org || (build 2550/release)
Библиотека кодирования : VirtualDubMod build 2550/release
Видео
Идентификатор : 0
Формат : MPEG-4 Visual
Профиль формата : Advanced [email protected]
Настройки формата : BVOP1 / Custom Matrix
Параметр BVOP формата : 1
Параметр QPel формата : Нет
Параметр GMC формата : Без точки перехода
Параметр матрицы формата : Выборочная
Идентификатор кодека : XVID
Идентификатор кодека/Подсказка : XviD
Продолжительность : 57 м. 1 с.
Битрейт : 1 700 Кбит/сек
Ширина : 720 пикселей
Высота : 304 пикселя
Соотношение сторон : 2,35:1
Частота кадров : 25,000 кадров/сек
Цветовое пространство : YUV
Субдискретизация насыщенности : 4:2:0
Битовая глубина : 8 бит
Тип развёртки : Прогрессивная
Метод сжатия : С потерями
Бит/(Пиксели*Кадры) : 0.311
Размер потока : 693 Мбайт (74%)
Библиотека кодирования : XviD 69
Аудио #1
Идентификатор : 1
Формат : AC-3
Формат/Информация : Audio Coding 3
Коммерческое название : Dolby Digital
Идентификатор кодека : 2000
Продолжительность : 57 м. 1 с.
Вид битрейта : Постоянный
Битрейт : 192 Кбит/сек
Каналы : 2 канала
Channel layout : L R
Частота : 48,0 КГц
Частота кадров : 31,250 кадров/сек (1536 SPF)
Метод сжатия : С потерями
Размер потока : 78,3 Мбайт (8%)
Выравнивание : Разделение по промежуткам
Продолжительность промежутка : 40 мс. (1,00 видеокадр)
Время предзагрузки промежутка : 500 мс.
Service kind : Complete Main
Аудио #2
Идентификатор : 2
Формат : AC-3
Формат/Информация : Audio Coding 3
Коммерческое название : Dolby Digital
Идентификатор кодека : 2000
Продолжительность : 57 м. 1 с.
Вид битрейта : Постоянный
Битрейт : 192 Кбит/сек
Каналы : 2 канала
Channel layout : L R
Частота : 48,0 КГц
Частота кадров : 31,250 кадров/сек (1536 SPF)
Метод сжатия : С потерями
Размер потока : 78,3 Мбайт (8%)
Выравнивание : Разделение по промежуткам
Продолжительность промежутка : 40 мс. (1,00 видеокадр)
Время предзагрузки промежутка : 500 мс.
Service kind : Complete Main
Аудио #3
Идентификатор : 3
Формат : AC-3
Формат/Информация : Audio Coding 3
Коммерческое название : Dolby Digital
Идентификатор кодека : 2000
Продолжительность : 57 м. 0 с.
Вид битрейта : Постоянный
Битрейт : 192 Кбит/сек
Каналы : 2 канала
Channel layout : L R
Частота : 48,0 КГц
Частота кадров : 31,250 кадров/сек (1536 SPF)
Метод сжатия : С потерями
Размер потока : 78,3 Мбайт (8%)
Выравнивание : Разделение по промежуткам
Продолжительность промежутка : 40 мс. (1,00 видеокадр)
Время предзагрузки промежутка : 500 мс.
Service kind : Complete Main
-

Скриншоты

-

Внимание! Раздача ведётся путём добавления новых серий

Внимание! Раздача ведётся путём добавления новых серий; при каждом добавлении создаётся новый торрент. Чтобы начать докачку новой серии, пользователям необходимо сделать следующее:
(1) остановить скачивание,
(2) удалить старый торрент у себя из клиента (старые серии удалять не надо),
(3) скачать новый торрент и запустить его у себя в клиенте вместо старого, при этом указать клиенту путь в старую папку куда и должно происходить скачивание новых серий.
Ваш клиент при этом должен произвести хеширование (проверку) старой папки (если не производит сам - помогите ему сделать это), и будет докачивать только те серии которых у вас ещё нет. Старые серии при этом не удаляются, а продолжают раздаваться!
Eсли вы уже удалили старые серии, то предотвратить повторную закачку старых серий можно, отжав галочку в соответствующих местах при запуске нового торрента. По возможности, желательно не удалять старые серии как можно дольше чтобы релизёр не столько продолжал раздавать старые серии, а смог сконцентрироваться на новых.
-


Смотреть онлайн

[trackeroc.org].33858.torrent  Магнет ссылка
Torrent: Registered   [ 2021-11-26 09:23 ]

Скачать торрент

25 KB

Status: * not checked
Completed: 36 times
Size: 4.59 GB
 

[Profile] [PM]
Display posts from previous:    
Reply to topic

The time now is: Today 09:06

All times are GMT + 4 Hours



You cannot post new topics in this forum
You cannot reply to topics in this forum
You cannot edit your posts in this forum
You cannot delete your posts in this forum
You cannot vote in polls in this forum
You cannot attach files in this forum
You can download files in this forum