Ми-ми-мишки (2015-2020) WEB-DLRip [H.264/720p-LQ] (сезон 1-7, серии 1-182 из 208) + Бонус скачать торрент

Reply to topic


DL-List and Torrent activity [Update пиров]
Size:  11.21 GB   |    Registered:  11 months 9 days   |    Completed:  0 times
Seeders:  43  [  190 KB/s  ]   Leechers:  42  [  17 MB/s  ]   Show peers in full details
 
 
 
 
Author Message

Pro100Moder ®

Longevity: 6 years 11 months

Posts: 2534

Location: Earth


Post 09-Dec-2019 21:19

[Quote]

Ми-ми-мишки / Be-be-bears
«Добрый мультфильм о дружбе»
- Жанр: Детский, Компьютерная анимация
Производство: Россия / Анимационная студия «Паровоз»
Режиссер: Алексей Миронов
Актеры: Полина Кутепова, Наталия Медведева, Дарья Мазанова, Диомид Виноградов...
Персонажи: Кеша, Тучка, Лисичка, Цыпа, Саня, Соня, Валя.
Описание:
Анимационный сериал о приключениях двух друзей — бурого медведя Иннокентия и белого медведя по имени Белая Тучка. Иннокентий любит гаджеты и технику, а Белая Тучка — дитя природы. Основной конфликт сюжета — поиск правильного баланса между прогрессом и любовью к природе. Давным-давно Белая Тучка приехал в гости и поселился в своем доме недалеко от дома Иннокентия. Сериал может помочь людям увидеть, что можно жить в гармонии с природой и при этом быть развитым, увлеченным, любящим науку и технику. Ну и что дружба преодолевает любые препятствия.

Возраст: 0+ (для любой зрительской аудитории)
Релиз от: Natasha77 (NNM-Club)
Продолжительность: 00:05:30 серия
Качество видео: WEB-DLRip
Перевод: Не требуется (Русский)
Субтитры: Отсутствуют
Видео: AVC/H.264, 1280x720, ~2000 kbps
Аудио: Русский: AС3, 2 ch, 192 kbps

MediaInfo:

Код:
Общее
Формат                                   : Matroska
Версия формата                           : Version 4
Размер файла                             : 69,1 Мбайт
Продолжительность                        : 5 м. 30 с.
Общий поток                              : 1755 Кбит/сек
Дата кодирования                         : UTC 2019-11-10 11:58:22
Программа кодирования                    : mkvmerge v40.0.0 ('Old Town Road + Pony') 32-bit
Библиотека кодирования                   : libebml v1.3.9 + libmatroska v1.5.2
Видео
Идентификатор                            : 1
Формат                                   : AVC
Формат/Информация                        : Advanced Video Codec
Профиль формата                          : [email protected]
Настройки формата                        : CABAC / 4 Ref Frames
Параметр CABAC формата                   : Да
Параметр RefFrames формата               : 4 кадра
Идентификатор кодека                     : V_MPEG4/ISO/AVC
Продолжительность                        : 5 м. 30 с.
Битрейт                                  : 1561 Кбит/сек
Ширина                                   : 1280 пикселей
Высота                                   : 720 пикселей
Соотношение сторон                       : 16:9
Режим частоты кадров                     : Постоянный
Частота кадров                           : 25,000 кадров/сек
Цветовое пространство                    : YUV
Субдискретизация насыщенности            : 4:2:0
Битовая глубина                          : 8 бит
Тип развёртки                            : Прогрессивная
Бит/(Пиксели*Кадры)                      : 0.068
Размер потока                            : 61,4 Мбайт (89%)
Библиотека кодирования                   : x264 core 152 r2854 e9a5903
Default                                  : Да
Forced                                   : Нет
Аудио
Идентификатор                            : 2
Формат                                   : AC-3
Формат/Информация                        : Audio Coding 3
Коммерческое название                    : Dolby Digital
Идентификатор кодека                     : A_AC3
Продолжительность                        : 5 м. 30 с.
Вид битрейта                             : Постоянный
Битрейт                                  : 192 Кбит/сек
Каналы                                   : 2 канала
ChannelLayout                            : L R
Частота                                  : 44,1 КГц
Частота кадров                           : 28,711 кадров/сек (1536 SPF)
Битовая глубина                          : 16 бит
Метод сжатия                             : С потерями
Размер потока                            : 7,55 Мбайт (11%)
ServiceKind/String                       : Complete Main
Default                                  : Да
Forced                                   : Нет

Интересные факты:

Пломбир — так сначала звали одного из героев. Но создатели изменили его на Тучку.
В мультфильме есть отсылки к другому мультсериалу студии «Паровоз» — «Бумажки». Например, Кеша, Тучка, Лисичка и Цыпа в серии «Нежданные гости» хотели посмотреть мультик «Бумажки», а на платье Лисички была нарисована сойка Аглая. Также в некоторых сериях «Ми-ми-мишек» есть фотография Аристотеля и Тюк-Тюка, главных героев «Бумажек».
На XXI Открытом Российском фестивале анимационного кино в Суздале 2016 «Ми-ми-мишки» получили приз в категории «Лучший сериал».
Мишку Иннокентия озвучивает актриса Наталья Медведева — бывшая участница КВН и шоу «Comedy Woman», а голос Тучки принадлежит актрисе театра «Мастерская Петра Фоменко» Полине Кутеповой.
Музыка к мультсериалу написана российской рок-группой «СЛОТ».
По мотивам мультсериала выпущены игры для мобилок и планшетов.
Текст заглавной песни:
Вместе по лесу идут,
Собирают шишки,
Вместе песенки поют
И читают книжки.
Сочиняют, мастерят
Эти шалунишки,
Вместе радуют ребят
Мишки ми-ми-мишки.

Главные персонажи:


Кеша
Иннокентий – бурый медведь. Кеша вечный заводила, подвижный, любопытный, дерзкий и нетерпеливый. Он изобретатель, любит гаджеты, может создать прибор любой сложности от «напоминалки» до портала в параллельную реальность.-
Тучка
Тучка – белый медведь. Спокойный и уравновешенный, терпеливый и деликатный персонаж. Любит природу и вообще созерцать. Мудрый, знает много историй и часто предается воспоминаниям: «А вот у нас на Севере...».-
Лисичка
Лисичка – добрая, спокойная, заботливая девочка. Обожает печь пироги, варить компот и угощать друзей. Очень хочет принимать участие в затеях и приключениях медвежат. Лисичка младше медвежат, но во многом мудрее их. Она интуитивно приходит к правильному решению, но высказывает свое мнение очень деликатно. И всегда очень ласково.-
Цыпа
Представляет собой нечто среднее между котом, собакой и птицей. Проявляет повадки и выполняет ролик почти всех домашних животных. Живет у Кеши, а больше всех дружит с ним и Тучкой.-
Саня
Саня - озорник и непоседа, слегка эгоистичен. Носит с собой рогатку. Делает мелкие пакости, но с намерением не навредить, а всего лишь позабавиться или привлечь внимание. Когда его ловят с поличным, выкручивается как может и раскаивается, но вскоре снова принимается за свое.-
Соня
Соня, как и ее брат, немного эгоистка и проявляет надменность. Любит моду и всякие новинки. Дружит с Лисичкой из собственной выгоды. Еноты по своей сути – это дети, которые пытаются привлечь к себе внимание любыми способами.-
Валя
Толстый, медлительный, неповоротливый увалень. Несколько неуверенный в себе. Интеллигент. Увлекается археологией. Всегда готов услужить всем. Валю легко обмануть, он очень доверчивый и наивный добряк.
-Скриншоты:


Смотреть онлайн

[trackeroc.org].29639.torrent  Магнет ссылка
Torrent: Registered   [ 2020-05-03 09:32 ]

Скачать торрент

76 KB

Status: checked
Completed: 1684 times
Size: 11.21 GB
 

www.trackeroc.ru (05-апр-20), trackeroc.org (21-авг-20)

Similar torrent
Forum Topic Author Size
Зарубежные сериалы Игрушка для взрослых / Во имя любви / Made for Love [сезон 1 серии 1-6 из 10] (2021) WEB-DLRip | TVShows www.trackeroc.ru 1.93 GB
Зарубежные сериалы Снегопад / Snowfall / Сезон: 1-3 (2017-2019) WEB-DLRip | NewStudio www.trackeroc.ru 17.2 GB
Зарубежные сериалы Снегопад / Snowfall [сезон 4 серии 1-8 из 10] (2021) WEB-DLRip | TVShows www.trackeroc.ru 4.37 GB
Зарубежные сериалы Спецназ города ангелов / S.W.A.T [сезон 4 / Серии: 1-13] (2020) WEBRip | TVShows www.trackeroc.ru 6.64 GB
Отечественные Мультсериалы Зебра в клеточку (2020) (сезон 1-2, серии 1-39 из 52) trackeroc.org 5 GB

_________________
[Profile] [PM]

alona

Longevity: 7 months 22 days

Posts: 1


Post 21-Aug-2020 14:56 (after 8 months 11 days)

[Quote]

і як їх скачати? 
[Profile] [PM]

trackeroc.org

Longevity: 8 months 22 days

Posts: 924

Location: trackeroc.ru trackeroc.org trackeroc.info trackeroc.site trackeroc.ml trackeroc.ga trackeroc.space


Post 21-Aug-2020 15:12 (after 15 minutes)

[Quote]

і як їх скачати?

[Profile] [PM]
Display posts from previous:    
Reply to topic

The time now is: Today 18:56

All times are GMT + 4 Hours



You cannot post new topics in this forum
You cannot reply to topics in this forum
You cannot edit your posts in this forum
You cannot delete your posts in this forum
You cannot vote in polls in this forum
You cannot attach files in this forum
You can download files in this forum