Малышарики (2015-2020) (сезон 1-4, серии 1-192 из 212) + Малышарики. Танцуем и поём! + Малышарики. Сказки скачать торрент

Reply to topic


DL-List and Torrent activity [Update пиров]
Size:  38.75 GB   |    Registered:  1 month 2 days   |    Completed:  0 times
Seeders:  25  [  1 MB/s  ]   Leechers:  37  [  38 MB/s  ]   Show peers in full details
 
 
 
 
Author Message

www.trackeroc.ru ®

Longevity: 6 years 11 months

Posts: 10151

Location: Скачать торрент


Post 03-May-2020 09:45

[Quote]

Малышарики - Производство: Россия / Студия анимации «Петербург»
Жанр: Мультсериал, Анимация, Детский
Режиссер: Марина Мошкова, Ольга Полиектова, Татьяна Полиектова
Актеры: Анна Геллер, Светлана Кузнецова, Марианна Мокшина, Ксения Бржезовская, Константин Хабенский
Персонажи: Нюшенька, Крошик, Барашик, Ёжик, Пандочка
Описание:
Анимационный развлекательно-образовательный проект для малышей от 0 до 3 лет, охватывающий̆ все сферы жизнедеятельности ребенка с самого рождения: здоровье и физическое развитие, познание, социализацию, труд и творчество. Благодаря использованию современных технологий и положенных в основу разработок детских психологов и педагогов, проект органично сочетает в себе интерактивность и безопасность.

Возраст: 0+ (для любой зрительской аудитории)
Релиз от: Natasha77 (NNM-Club)
Продолжительность: ~00:05:00 серия
Качество видео: WEB-DL
Перевод: Не требуется (Русский)
Субтитры: Отсутствуют
Видео: AVC/H.264, 1920x1080 (16:9), 5120 Kbps
Аудио: AAC, 2 ch, 256 Kbps

Mediainfo:

Общее
Уникальный идентификатор : 129118068594674389276404697778925197287 (0x61233C478D3E9B44F8E334B14D29D7E7)
Полное имя : Ф:\153_Барабанщик.mkv
Формат : Matroska
Версия формата : Version 4
Размер файла : 192 Мбайт
Продолжительность : 5 м. 2 с.
Общий поток : 5344 Кбит/сек
Дата кодирования : UTC 2019-07-06 03:46:45
Программа кодирования : mkvmerge v35.0.0 ('All The Love In The World') 32-bit
Библиотека кодирования : libebml v1.3.9 + libmatroska v1.5.2
Видео
Идентификатор : 1
Формат : AVC
Формат/Информация : Advanced Video Codec
Профиль формата : [email protected]
Настройки формата : CABAC / 4 Ref Frames
Параметр CABAC формата : Да
Параметр RefFrames формата : 4 кадра
Идентификатор кодека : V_MPEG4/ISO/AVC
Продолжительность : 5 м. 2 с.
Битрейт : 5120 Кбит/сек
Ширина : 1920 пикселей
Высота : 1080 пикселей
Соотношение сторон : 16:9
Режим частоты кадров : Постоянный
Частота кадров : 25,000 кадров/сек
Цветовое пространство : YUV
Субдискретизация насыщенности : 4:2:0
Битовая глубина : 8 бит
Тип развёртки : Прогрессивная
Бит/(Пиксели*Кадры) : 0.099
Размер потока : 183 Мбайт (95%)
Библиотека кодирования : x264 core 148
Язык : English
Default : Да
Forced : Нет
Аудио
Идентификатор : 2
Формат : AAC LC
Формат/Информация : Advanced Audio Codec Low Complexity
Идентификатор кодека : A_AAC-2
Продолжительность : 5 м. 2 с.
Битрейт : 256 Кбит/сек
Каналы : 2 канала
ChannelLayout : L R
Частота : 48,0 КГц
Частота кадров : 46,875 кадров/сек (1024 SPF)
Метод сжатия : С потерями
Задержка видео : -43 мс.
Размер потока : 9,22 Мбайт (5%)
Язык : Russian
Default : Да
Forced : Нет

Персонажи:


Крошик – озорной маленький непоседа. Ни минутки не может усидеть на месте! Всё время куда-то бежит, чему-то радуется и во что-то играет. Иногда так заиграется, что обидит кого-то и не заметит этого. Вместе с Крошиком мы учимся быть внимательными и чуткими. Отвлечься от игры и посмотреть по сторонам малышу не так-то просто. Но Крошик очень старается.-
Нюшенька – настоящая маленькая принцесса. Красивая и нежная девочка! Наряжается, как принцесса. Кружится перед зеркалом, как принцесса. И капризничает тоже, как принцесса. Чуть что не так, сразу хмурится и сердится. Но вредничать Нюшеньке совсем не нравится. Вместе с ней мы учимся добиваться своего без капризов, быть мягче и добрее. Девочкам это очень идёт.-
Барашик у нас будущий художник. Очень нежный и чувствительный малыш. Любит рисовать и никогда не пройдёт мимо того, кто грустит. Правда и сам может всплакнуть из-за какого-нибудь пустяка. Другие даже внимания не обратят, а этот сидит, дуется. Вместе с Барашиком мы учимся грустить пореже, а смеяться почаще. Смотрите, какая у нашего малыша славная улыбка!-
Ёжик – серьёзный и усидчивый малыш. Любит порядок и тихие спокойные игры. Строит самые высокие пирамидки, и всегда на ночь ставит машинки в гараж. А ещё Ёжик немного стеснительный. Хочет поиграть с друзьями, но боится подойти первым. Так и сидит один, пока его не позовут. Вместе с Ёжиком мы учимся быть смелыми и активными. У Ёжика уже неплохо получается.-
Ох уж эта Пандочка! Маленький ураган с большим бантом! Всё успевает – и поиграть, и пошалить. Хитрюга и проказница. Если где-то что-то случилось - будьте уверены, без Пандочки тут не обошлось. Малыши её обожают! Хотя иногда из-за неё могут оказаться в углу. Вместе с Пандочкой мы взрослеем — учимся отличать безобидные шалости от опасных занятий.

Интересные факты:

«Малышарики» – первый российский анимационный сериал, созданный по технологии совмещения видеосъёмки с 2D- и 3D-анимацией.
Несмотря на то, что сериал ориентирован на малышей до 3 лет и их родителей, в любви к «Малышарикам» признаются зрители и подросткового возраста, и 70 лет.
На разработку проекта – от первоначальной идеи до создания существующего образа персонажей и концепции проекта – ушло 5 лет.
По первоначальной задумке авторов, в сериале должны были быть представлены 9 персонажей, однако позже их количество было сокращено до 4. Впоследствии к Нюшеньке, Крошику, Барашику и Ёжику присоединилась Пандочка.
Одним из экспертов проекта в 2016 году стала Лариса Суркова – известный семейный и детский психолог, кандидат психологических наук, эксперт в области развития детей, автор 10 книг по семейной психологии и мама пятерых детей.
Маму-рассказчицу в сериале озвучивает актриса театра и кино Анна Геллер, а Папу-рассказчика Народный артист России — Константин Хабенский.
Первые сценарии «Малышариков» представляли собой законченные истории, которые впоследствии трансформировали в сюжетно-игровую и музыкально-методическую части.
Ежемесячно композиторы «Малышариков» – Марина Ланда и Сергей Васильев – создают по 6–8 новых песен к сериалу.
-Скриншоты:


Смотреть онлайн

[trackeroc.org].30479.torrent  Магнет ссылка
Torrent: Registered   [ 2021-03-10 16:07 ]

Скачать торрент

213 KB

Status: * not checked
Completed: 1449 times
Size: 38.75 GB
 

Pro100Moder (03-май-20), trackeroc.org (29-дек-20)

Similar torrent
Forum Topic Author Size
Российские сериалы Жуки (2021) (сезон 2, серии 1-6 из 16) Pro100Moder 1.91 GB
Зарубежные сериалы Игрушка для взрослых / Во имя любви / Made for Love [сезон 1 серии 1-6 из 10] (2021) WEB-DLRip | TVShows www.trackeroc.ru 1.93 GB
Зарубежные сериалы Снегопад / Snowfall / Сезон: 1-3 (2017-2019) WEB-DLRip | NewStudio www.trackeroc.ru 17.2 GB
Зарубежные сериалы Снегопад / Snowfall [сезон 4 серии 1-8 из 10] (2021) WEB-DLRip | TVShows www.trackeroc.ru 4.37 GB
Зарубежные сериалы Спецназ города ангелов / S.W.A.T [сезон 4 / Серии: 1-13] (2020) WEBRip | TVShows www.trackeroc.ru 6.64 GB
[Profile] [PM]
Display posts from previous:    
Reply to topic

The time now is: Today 19:09

All times are GMT + 4 Hours



You cannot post new topics in this forum
You cannot reply to topics in this forum
You cannot edit your posts in this forum
You cannot delete your posts in this forum
You cannot vote in polls in this forum
You cannot attach files in this forum
You can download files in this forum