Маки 13-го поколения (Молодые аристократы: 13 шагов Макки) / Wakai kizoku-tachi: 13-kaidan no Maki / 13 Steps of Maki: The Young Aristocrats (1975) HDTV [MPEG-2/1080i-LQ] [АVO] скачать торрент

Reply to topic

DL-List and Torrent activity [Update пиров]
Size:  4.51 GB   |    Registered:  1 month 6 days   |    Completed:  0 times

Seeder not seen: Never

 
 
 
 
 
Author Message

Captain ®

Longevity: 6 years 3 months

Posts: 2472

Location: Earth


Post 08-Jul-2020 08:17

[Quote]

Маки 13-го поколения (Молодые аристократы: 13 шагов Макки) / Wakai kizoku-tachi: 13-kaidan no Maki / 13 Steps of Maki: The Young Aristocrats - Производство: Япония, Toei Tokyo
Жанр: Боевик, драма, криминал
Режиссер: Макото Наито
Актеры: Эцуко Сихоми, Миса Охара, Хироси Нава, Тацуя Нандзё, Хироси Кондо, Сонни Тиба, Кодзи Фудзияма, Хидэо Мурота, Мэйка Сэри, Этсуко Шибата
Описание:
Главная героиня Маки Хюго — сэнсэй без додзё. 13 поколений семьи Маки были мастерами единоборств, но несколько лет назад эта традиция внезапно пресеклась. Старший брат девушки Кэнъити исчез при загадочных обстоятельствах, не оставив сестре инструкций и рекомендаций. Теперь она — вожак женской банды из Синдзюку, всегда готовая вступиться за слабых и обиженных. Мелкие якудза откровенно ее побаиваются, крупные смотрят сквозь пальцы, избегая серьезных конфликтов.

Релиз от: vitolinform
Продолжительность: 01:18:20
Качество видео: HDTV
Перевод: Авторский одноголосый (Сергей Кузнецов), двухголосый любительский (STEPonee)
Субтитры: Русские (на песни), английские
Видео: MPEG-2, [email protected], ~7647 kbps
Аудио 1: AC3, 2 ch, 224 Кbps | Русский (АVO, С.Кузнецов)
Аудио 2: AC3, 2 ch, 224 Кbps | Русский (DVO, STEPonee)
Аудио 3: AАC, 2 ch, 141 Кbps | Японский

MediaInfo:

Общее
Уникальный идентификатор : 140768412520652184704675754003653440572 (0x69E702953DB65D5A041D7FA0414FB43C)
Полное имя : 13.Steps.of.Maki.The.Young.Aristocrats.1975.1080p.HDTV.mkv
Формат : Matroska
Версия формата : Version 4
Размер файла : 4,51 Гбайт
Продолжительность : 1 ч. 18 м.
Режим общего битрейта : Переменный
Общий поток : 8 240 Кбит/сек
Название фильма : Молодые аристократы: 13 шагов Макки / Маки 13-го поколения / Wakai kizoku-tachi: 13-kaidan no Maki / 13 Steps of Maki: The Young Aristocrats (1975) HDTV 1080p
Дата кодирования : UTC 2020-07-06 04:15:02
Программа кодирования : mkvmerge v42.0.0 ('Overtime') 32-bit
Библиотека кодирования : libebml v1.3.10 + libmatroska v1.5.2
Видео
Идентификатор : 1
Формат : MPEG Video
Версия формата : Version 2
Профиль формата : [email protected]
Настройки формата : CustomMatrix / BVOP
Параметр BVOP формата : Да
Параметр матрицы формата : Выборочная
Параметр GOP формата : M=3, N=30
Структура изображения : Frame
Идентификатор кодека : V_MPEG2
Идентификатор кодека/Информация : MPEG 1 or 2 Video
Продолжительность : 1 ч. 18 м.
Вид битрейта : Переменный
Битрейт : 7 647 Кбит/сек
Максимальный битрейт : 8 325 Кбит/сек
Ширина : 1 440 пикселей
Высота : 1 080 пикселей
Соотношение сторон : 16:9
Режим частоты кадров : Переменный
Частота кадров : 24,000 кадра/сек
Частота кадров в оригинале : 29,970 (30000/1001) кадров/сек
Стандарт вещания : Component
Цветовое пространство : YUV
Субдискретизация насыщенности : 4:2:0
Битовая глубина : 8 бит
Тип развёртки : Чересстрочная
Порядок развёртки : Верхнее поле первое
Метод сжатия : С потерями
Бит/(Пиксели*Кадры) : 0.205
Временной код первого кадра : 06:01:42;25
Оригинал временного кода : Group of pictures header
GOP, открыто/закрыто : Открыто
Размер потока : 4,18 Гбайт (93%)
Заголовок : Молодые аристократы: 13 шагов Макки / Маки 13-го поколения / Wakai kizoku-tachi: 13-kaidan no Maki / 13 Steps of Maki: The Young Aristocrats (1975) HDTV 1080p
Язык : Japanese
Default : Да
Forced : Да
Основные цвета : BT.709
Характеристики трансфера : BT.709
Коэффициенты матрицы : BT.709
Аудио #1
Идентификатор : 2
Формат : AC-3
Формат/Информация : Audio Coding 3
Коммерческое название : Dolby Digital
Идентификатор кодека : A_AC3
Продолжительность : 1 ч. 18 м.
Вид битрейта : Постоянный
Битрейт : 224 Кбит/сек
Каналы : 2 канала
Channel layout : L R
Частота : 48,0 КГц
Частота кадров : 31,250 кадров/сек (1536 SPF)
Метод сжатия : С потерями
Размер потока : 126 Мбайт (3%)
Заголовок : AVO Сергей Кузнецов
Язык : Russian
Service kind : Complete Main
Default : Да
Forced : Да
Аудио #2
Идентификатор : 3
Формат : AC-3
Формат/Информация : Audio Coding 3
Коммерческое название : Dolby Digital
Идентификатор кодека : A_AC3
Продолжительность : 1 ч. 18 м.
Вид битрейта : Постоянный
Битрейт : 224 Кбит/сек
Каналы : 2 канала
Channel layout : L R
Частота : 48,0 КГц
Частота кадров : 31,250 кадров/сек (1536 SPF)
Метод сжатия : С потерями
Размер потока : 126 Мбайт (3%)
Заголовок : DVO, STEPonee
Язык : Russian
Service kind : Complete Main
Default : Нет
Forced : Нет
Аудио #3
Идентификатор : 4
Формат : AAC LC
Формат/Информация : Advanced Audio Codec Low Complexity
Идентификатор кодека : A_AAC-2
Продолжительность : 1 ч. 18 м.
Битрейт : 141 Кбит/сек
Каналы : 2 канала
Channel layout : L R
Частота : 48,0 КГц
Частота кадров : 46,875 кадров/сек (1024 SPF)
Метод сжатия : С потерями
Задержка видео : 104 мс.
Размер потока : 78,8 Мбайт (2%)
Заголовок : HDTV
Язык : Japanese
Default : Нет
Forced : Нет
Текст #1
Идентификатор : 5
Формат : UTF-8
Идентификатор кодека : S_TEXT/UTF8
Идентификатор кодека/Информация : UTF-8 Plain Text
Продолжительность : 1 ч. 16 м.
Битрейт : 3 бит/сек
Count of elements : 34
Размер потока : 1,89 Кбайт (0%)
Заголовок : Forsed, STEPonee
Язык : Russian
Default : Нет
Forced : Да
Текст #2
Идентификатор : 6
Формат : UTF-8
Идентификатор кодека : S_TEXT/UTF8
Идентификатор кодека/Информация : UTF-8 Plain Text
Продолжительность : 1 ч. 17 м.
Битрейт : 31 бит/сек
Count of elements : 635
Размер потока : 17,9 Кбайт (0%)
Язык : English
Default : Нет
Forced : Нет

Дополнительная информация:

Перевод: Илья Хайко
Роли озвучивали: Александр Пупко и Лилия Галиуллина
Работа со звуком и монтаж: Юрий Балякин
Заказ перевода и озвучивания: vitolinform
-Скриншоты:


Смотреть онлайн

[trackeroc.org].31123.torrent  Магнет ссылка
Torrent: Registered   [ 2020-07-08 08:17 ]

Скачать торрент

24 KB

Status: checked
Completed: 13 times
Size: 4.51 GB
 

Admin (15-июл-20)


_________________
[Profile] [PM]
Display posts from previous:    
Reply to topic

The time now is: Today 03:19

All times are GMT + 4 Hours



You cannot post new topics in this forum
You cannot reply to topics in this forum
You cannot edit your posts in this forum
You cannot delete your posts in this forum
You cannot vote in polls in this forum
You cannot attach files in this forum
You can download files in this forum