Любовь, смерть и роботы / Love, Death & Robots (2019-2021) WEB-DLRip (сезон 1-2, серии 1-26 из 26) Пифагор скачать торрент

Reply to topic


DL-List and Torrent activity [Update пиров]
Size:  4.07 GB   |    Registered:  1 month 3 days   |    Completed:  1 time
Seeders:  15  [  216 KB/s  ]   Leechers:  26  [  17 MB/s  ]   Show peers in full details
 
 
 
 
Author Message

Pro100Moder ®

Longevity: 7 years 2 months

Posts: 2512

Location: Earth


Post 17-Mar-2019 14:58

[Quote]

Любовь, смерть и роботы / Love, Death & Robots - Производство: США / Blur Studio, Netflix
Жанр: мультфильм, ужасы, фантастика, фэнтези, комедия, боевик, криминал, для взрослых
Режиссер: Тим Миллер
Актеры: Нолан Норт, Мэттью Кинг, Джош Бренер, Генри Даутуэйт, Грэхэм Хэмилто, Эмили О’Брайэн, Хелен Сэдлер, Илэйн Тан.
Описание:
Проект Любовь, смерть и роботы - это отдельный вид искусства. Сериал представляет собой великолепную смесь историй, представленных в совершенно различных жанрах. Здесь вас ожидает столкновение с классическими элементами научной фантастики, необычным юмором, удивительным фэнтезийным миром и по-настоящему пробирающим до мурашек ужасом. Каждый из персонажей в проекте покажется вам странным, как минимум. Здесь происходит настоящий вынос мозга, к которому никак не привыкнуть и не подготовиться. Если вы готовы смотреть историю, где в центре внимания оказываются молочные продукты, неожиданно ожившие после загадочных обстоятельств, безумные роботы, стремящиеся захватить мир и солдаты, способные обращаться в животных, то добро пожаловать к экранам! Перед вами потрясающая история, которая обязательно придётся по душе всем поклонникам безумств и абсурда!

Возраст: 18+ (зрителям, достигшим 18 лет. запрещено для детей)
Рейтинг MPAA: R (лицам до 17 лет обязательно присутствие взрослого)
Дата премьеры 1 сезона: 15 марта 2019
Дата премьеры 2 сезона: 14 мая 2021
Продолжительность: ~00:15:00 серия
Качество видео: WEB-DL
Перевод: Дублированный (Пифагор)
Субтитры: русские, английские - отдельно
Видео: XviD, 704x352, ~1432 kbps
Аудио#1: МР3, 2 ch, 128 kbps | Русский
Аудио#2: МР3, 2 ch, 128 kbps | Английский

Mediainfo:

Общее
Полное имя : Love.Death.and.Robots.s01e06.avi
Формат : AVI
Формат/Информация : Audio Video Interleave
Размер файла : 77,2 Мбайт
Продолжительность : 6 м. 20 с.
Общий поток : 1 703 Кбит/сек
Программа кодирования : VirtualDubMod 1.5.10.2 (build 2540/release)
Библиотека кодирования : VirtualDubMod build 2540/release
Видео
Идентификатор : 0
Формат : MPEG-4 Visual
Профиль формата : Advanced [email protected]
Настройки формата : BVOP1 / Custom Matrix
Параметр BVOP формата : 1
Параметр QPel формата : Нет
Параметр GMC формата : Без точки перехода
Параметр матрицы формата : Выборочная
Идентификатор кодека : XVID
Идентификатор кодека/Подсказка : XviD
Продолжительность : 6 м. 20 с.
Битрейт : 1 432 Кбит/сек
Ширина : 704 пикселя
Высота : 352 пикселя
Соотношение сторон : 2,000
Частота кадров : 24,000 кадра/сек
Цветовое пространство : YUV
Субдискретизация насыщенности : 4:2:0
Битовая глубина : 8 бит
Тип развёртки : Прогрессивная
Метод сжатия : С потерями
Бит/(Пиксели*Кадры) : 0.241
Размер потока : 64,9 Мбайт (84%)
Библиотека кодирования : XviD 73
Аудио #1
Идентификатор : 1
Формат : MPEG Audio
Версия формата : Version 1
Профиль формата : Layer 3
Настройки формата : Joint stereo / MS Stereo
Идентификатор кодека : 55
Идентификатор кодека/Подсказка : MP3
Продолжительность : 6 м. 20 с.
Вид битрейта : Постоянный
Битрейт : 128 Кбит/сек
Каналы : 2 канала
Частота : 48,0 КГц
Метод сжатия : С потерями
Размер потока : 5,80 Мбайт (8%)
Выравнивание : Разделение по промежуткам
Продолжительность промежутка : 42 мс. (1,00 видеокадр)
Время предзагрузки промежутка : 500 мс.
Аудио #2
Идентификатор : 2
Формат : MPEG Audio
Версия формата : Version 1
Профиль формата : Layer 3
Настройки формата : Joint stereo
Идентификатор кодека : 55
Идентификатор кодека/Подсказка : MP3
Продолжительность : 6 м. 20 с.
Вид битрейта : Постоянный
Битрейт : 128 Кбит/сек
Каналы : 2 канала
Частота : 48,0 КГц
Метод сжатия : С потерями
Размер потока : 5,80 Мбайт (8%)
Выравнивание : Разделение по промежуткам
Продолжительность промежутка : 42 мс. (1,00 видеокадр)
Время предзагрузки промежутка : 500 мс.
-Скриншоты:


Смотреть онлайн

[trackeroc.org].27910.torrent  Магнет ссылка
Torrent: Registered   [ 2021-05-15 18:27 ]

Скачать торрент

27 KB

Status: checked
Completed: 170 times
Size: 4.07 GB
 

trackeroc.info (17-мар-19)

Similar torrent
Forum Topic Author Size
Квесты, я ищу, Поиск предметов, Hidden Object Vengeance Lost Love / Возмездие. Потерянная любовь [RUS / ENG] (2016) trackeroc.info 434 MB
Детективы ,криминал Первая любовь / Hatsukoi (2019) BDRip [H.264/720p] Pro100Moder 3.42 GB
Квесты, я ищу, Поиск предметов, Hidden Object Immortal Love 7 Stone Beauty / Бессмертная любовь 7. Каменная красавица [RUS / ENG] (2020) trackeroc.info 919 MB
Квесты, я ищу, Поиск предметов, Hidden Object Phantasmat 12: Death Phin Hardcover / Фантазмат 12: Смерть в твердом переплете [RUS / ENG] (2018) trackeroc.info 760 MB

_________________
[Profile] [PM]
Display posts from previous:    
Reply to topic

The time now is: Today 04:47

All times are GMT + 4 Hours



You cannot post new topics in this forum
You cannot reply to topics in this forum
You cannot edit your posts in this forum
You cannot delete your posts in this forum
You cannot vote in polls in this forum
You cannot attach files in this forum
You can download files in this forum