Легенда о Vox Machina / Легенда Вокс Макины / The Legend of Vox Machina (2022) WEB-DL [H.264/720p] (сезон 1, серии 1-12 из 12) NewStation скачать торрент

Reply to topic


DL-List and Torrent activity [Update пиров]
Size:  10.54 GB   |    Registered:  2 months 19 days   |    Completed:  0 times
Seeders:  47  [  934 KB/s  ]   Leechers:  11  [  54 MB/s  ]   Show peers in full details
 
 
 
 
Author Message

Pro100Moder ®

Longevity: 8 years

Posts: 2453

Location: Earth


Post 25-Feb-2022 09:41

[Quote]

Легенда о Vox Machina / Легенда Вокс Макины / The Legend of Vox Machina - Производство: США / Аmazon Studios
Жанр: Для взрослых, мультфильм, фэнтези, боевик, комедия, приключения
Режиссер: Ан Сон-джин
Актеры: Лора Бэйли, Толизин Джаффе, Эшли Джонсон, Лайам О’Брайэн, Мариша Рэй, Сэм Ригел, Трэвис Уиллингэм, Мэттью Мерсер, Стефани Беатриз, Хари Пэйтон
Описание:
Они хулиганы, они разношерстные, они неудачники, ставшие наемниками. Они больше заинтересованы в легких деньгах и дешевом эле, чем в реальной защите королевства. Но когда королевству угрожает зло, эта неистовая команда понимает, что только они способны восстановить справедливость...

Продолжительность: ~00:27:00 серия
Качество видео: WEB-DL
Перевод: Многоголосый профессиональный (NewStation) Присутствует ненормативная лексика!
Субтитры: русские, английские, испанские, норвежские, индонезийские, греческие, румынские, немецкие, тайские, японские, итальянские, португальские, китайские, финские, шведские, ивритские, арабские, голландские, датские, польские, турецкие, корейские, французские
Видео: AVC/H.264, 1280х720, ~3674 Kbps
Аудио #1: E-AC3, 6 ch, 640 kbps, - Русский (NewStation)
Аудио #2: E-AC3, 6 ch, 640 kbps, - Английский

Список серий:

01. The Terror of Tal'Dorei - Part 1
02. The Terror of Tal'Dorei - Part 2
03. The Feast of Realms
04. Shadows at the Gates
05. Fate's Journey
06. Spark of Rebellion
07. Scanbo
08. A Silver Tongue
09. The Tide of Bone
10. Depths of Deceit
11. Whispers at the Ziggurat
12. The Darkness Within

MediaInfo:

Общее
Уникальный идентификатор : 32798246355450594147165964835868356678 (0x18ACB664F436BADC507C16DB76CFB046)
Полное имя : The.Legend.of.Vox.Machina.S01E01.WEB-DL.720p.NewStation.mkv
Формат : Matroska
Версия формата : Version 4
Размер файла : 963 Мбайт
Продолжительность : 27 м. 7 с.
Общий поток : 4 961 Кбит/сек
Дата кодирования : UTC 2022-01-29 16:16:59
Программа кодирования : mkvmerge v40.0.0 ('Old Town Road + Pony') 64-bit
Библиотека кодирования : libebml v1.3.9 + libmatroska v1.5.2
Видео
Идентификатор : 1
Формат : AVC
Формат/Информация : Advanced Video Codec
Профиль формата : [email protected]
Настройки формата : CABAC / 4 Ref Frames
Параметр CABAC формата : Да
Параметр RefFrames формата : 4 кадра
Идентификатор кодека : V_MPEG4/ISO/AVC
Продолжительность : 27 м. 7 с.
Вид битрейта : Постоянный
Битрейт : 3 674 Кбит/сек
Номинальный битрейт : 4 000 Кбит/сек
Ширина : 1 280 пикселей
Высота : 720 пикселей
Соотношение сторон : 16:9
Режим частоты кадров : Постоянный
Частота кадров : 23,976 (24000/1001) кадра/сек
Цветовое пространство : YUV
Субдискретизация насыщенности : 4:2:0
Битовая глубина : 8 бит
Тип развёртки : Прогрессивная
Бит/(Пиксели*Кадры) : 0.166
Размер потока : 713 Мбайт (74%)
Default : Да
Forced : Нет
Цветовой диапазон : Limited
Основные цвета : BT.709
Характеристики трансфера : BT.709
Коэффициенты матрицы : BT.709
Аудио #1
Идентификатор : 2
Формат : E-AC-3
Формат/Информация : Enhanced AC-3
Коммерческое название : Dolby Digital Plus
Идентификатор кодека : A_EAC3
Продолжительность : 27 м. 7 с.
Вид битрейта : Постоянный
Битрейт : 640 Кбит/сек
Каналы : 6 каналов
Channel layout : L R C LFE Ls Rs
Частота : 48,0 КГц
Частота кадров : 31,250 кадров/сек (1536 SPF)
Метод сжатия : С потерями
Размер потока : 124 Мбайт (13%)
Заголовок : NewStation
Язык : Russian
Service kind : Complete Main
Default : Да
Forced : Нет
Аудио #2
Идентификатор : 3
Формат : E-AC-3
Формат/Информация : Enhanced AC-3
Коммерческое название : Dolby Digital Plus
Идентификатор кодека : A_EAC3
Продолжительность : 27 м. 7 с.
Вид битрейта : Постоянный
Битрейт : 640 Кбит/сек
Каналы : 6 каналов
Channel layout : L R C LFE Ls Rs
Частота : 48,0 КГц
Частота кадров : 31,250 кадров/сек (1536 SPF)
Метод сжатия : С потерями
Размер потока : 124 Мбайт (13%)
Язык : English
Service kind : Complete Main
Default : Нет
Forced : Нет
Текст #1
Идентификатор : 4
Формат : UTF-8
Идентификатор кодека : S_TEXT/UTF8
Идентификатор кодека/Информация : UTF-8 Plain Text
Продолжительность : 5 м. 30 с.
Битрейт : 35 бит/сек
Count of elements : 23
Размер потока : 1,44 Кбайт (0%)
Заголовок : Песни
Язык : Russian
Default : Да
Forced : Да
Текст #2
Идентификатор : 5
Формат : UTF-8
Идентификатор кодека : S_TEXT/UTF8
Идентификатор кодека/Информация : UTF-8 Plain Text
Продолжительность : 26 м. 3 с.
Битрейт : 69 бит/сек
Count of elements : 444
Размер потока : 13,2 Кбайт (0%)
Язык : English
Default : Нет
Forced : Нет
Текст #3
Идентификатор : 6
Формат : UTF-8
Идентификатор кодека : S_TEXT/UTF8
Идентификатор кодека/Информация : UTF-8 Plain Text
Продолжительность : 26 м. 3 с.
Битрейт : 80 бит/сек
Count of elements : 531
Размер потока : 15,3 Кбайт (0%)
Заголовок : SDH
Язык : English
Default : Нет
Forced : Нет
Текст #4
Идентификатор : 7
Формат : UTF-8
Идентификатор кодека : S_TEXT/UTF8
Идентификатор кодека/Информация : UTF-8 Plain Text
Продолжительность : 25 м. 59 с.
Битрейт : 105 бит/сек
Count of elements : 347
Размер потока : 20,1 Кбайт (0%)
Язык : Arabic
Default : Нет
Forced : Нет
Текст #5
Идентификатор : 8
Формат : UTF-8
Идентификатор кодека : S_TEXT/UTF8
Идентификатор кодека/Информация : UTF-8 Plain Text
Продолжительность : 25 м. 59 с.
Битрейт : 67 бит/сек
Count of elements : 347
Размер потока : 12,9 Кбайт (0%)
Язык : Czech
Default : Нет
Forced : Нет
Текст #6
Идентификатор : 9
Формат : UTF-8
Идентификатор кодека : S_TEXT/UTF8
Идентификатор кодека/Информация : UTF-8 Plain Text
Продолжительность : 25 м. 59 с.
Битрейт : 67 бит/сек
Count of elements : 346
Размер потока : 12,9 Кбайт (0%)
Язык : Danish
Default : Нет
Forced : Нет
Текст #7
Идентификатор : 10
Формат : UTF-8
Идентификатор кодека : S_TEXT/UTF8
Идентификатор кодека/Информация : UTF-8 Plain Text
Продолжительность : 25 м. 59 с.
Битрейт : 67 бит/сек
Count of elements : 298
Размер потока : 12,9 Кбайт (0%)
Язык : German
Default : Нет
Forced : Нет
Текст #8
Идентификатор : 11
Формат : UTF-8
Идентификатор кодека : S_TEXT/UTF8
Идентификатор кодека/Информация : UTF-8 Plain Text
Продолжительность : 25 м. 59 с.
Битрейт : 120 бит/сек
Count of elements : 347
Размер потока : 22,9 Кбайт (0%)
Язык : Greek
Default : Нет
Forced : Нет
Текст #9
Идентификатор : 12
Формат : UTF-8
Идентификатор кодека : S_TEXT/UTF8
Идентификатор кодека/Информация : UTF-8 Plain Text
Продолжительность : 25 м. 59 с.
Битрейт : 66 бит/сек
Count of elements : 347
Размер потока : 12,7 Кбайт (0%)
Заголовок : Latinoamérica
Язык : Spanish
Default : Нет
Forced : Нет
Текст #10
Идентификатор : 13
Формат : UTF-8
Идентификатор кодека : S_TEXT/UTF8
Идентификатор кодека/Информация : UTF-8 Plain Text
Продолжительность : 25 м. 59 с.
Битрейт : 68 бит/сек
Count of elements : 347
Размер потока : 13,0 Кбайт (0%)
Заголовок : España
Язык : Spanish
Default : Нет
Forced : Нет
Текст #11
Идентификатор : 14
Формат : UTF-8
Идентификатор кодека : S_TEXT/UTF8
Идентификатор кодека/Информация : UTF-8 Plain Text
Продолжительность : 25 м. 59 с.
Битрейт : 61 бит/сек
Count of elements : 344
Размер потока : 11,8 Кбайт (0%)
Язык : Finnish
Default : Нет
Forced : Нет
Текст #12
Идентификатор : 15
Формат : UTF-8
Идентификатор кодека : S_TEXT/UTF8
Идентификатор кодека/Информация : UTF-8 Plain Text
Продолжительность : 25 м. 59 с.
Битрейт : 68 бит/сек
Count of elements : 345
Размер потока : 13,0 Кбайт (0%)
Язык : fil
Default : Нет
Forced : Нет
Текст #13
Идентификатор : 16
Формат : UTF-8
Идентификатор кодека : S_TEXT/UTF8
Идентификатор кодека/Информация : UTF-8 Plain Text
Продолжительность : 25 м. 59 с.
Битрейт : 68 бит/сек
Count of elements : 346
Размер потока : 13,1 Кбайт (0%)
Язык : French
Default : Нет
Forced : Нет
Текст #14
Идентификатор : 17
Формат : UTF-8
Идентификатор кодека : S_TEXT/UTF8
Идентификатор кодека/Информация : UTF-8 Plain Text
Продолжительность : 25 м. 59 с.
Битрейт : 102 бит/сек
Count of elements : 347
Размер потока : 19,6 Кбайт (0%)
Язык : Hebrew
Default : Нет
Forced : Нет
Текст #15
Идентификатор : 18
Формат : UTF-8
Идентификатор кодека : S_TEXT/UTF8
Идентификатор кодека/Информация : UTF-8 Plain Text
Продолжительность : 25 м. 59 с.
Битрейт : 163 бит/сек
Count of elements : 347
Размер потока : 31,2 Кбайт (0%)
Язык : Hindi
Default : Нет
Forced : Нет
Текст #16
Идентификатор : 19
Формат : UTF-8
Идентификатор кодека : S_TEXT/UTF8
Идентификатор кодека/Информация : UTF-8 Plain Text
Продолжительность : 25 м. 59 с.
Битрейт : 64 бит/сек
Count of elements : 347
Размер потока : 12,3 Кбайт (0%)
Язык : Hungarian
Default : Нет
Forced : Нет
Текст #17
Идентификатор : 20
Формат : UTF-8
Идентификатор кодека : S_TEXT/UTF8
Идентификатор кодека/Информация : UTF-8 Plain Text
Продолжительность : 25 м. 59 с.
Битрейт : 64 бит/сек
Count of elements : 346
Размер потока : 12,3 Кбайт (0%)
Язык : Indonesian
Default : Нет
Forced : Нет
Текст #18
Идентификатор : 21
Формат : UTF-8
Идентификатор кодека : S_TEXT/UTF8
Идентификатор кодека/Информация : UTF-8 Plain Text
Продолжительность : 25 м. 59 с.
Битрейт : 66 бит/сек
Count of elements : 347
Размер потока : 12,7 Кбайт (0%)
Язык : Italian
Default : Нет
Forced : Нет
Текст #19
Идентификатор : 22
Формат : UTF-8
Идентификатор кодека : S_TEXT/UTF8
Идентификатор кодека/Информация : UTF-8 Plain Text
Продолжительность : 25 м. 59 с.
Битрейт : 54 бит/сек
Count of elements : 339
Размер потока : 10,4 Кбайт (0%)
Язык : Japanese
Default : Нет
Forced : Нет
Текст #20
Идентификатор : 23
Формат : UTF-8
Идентификатор кодека : S_TEXT/UTF8
Идентификатор кодека/Информация : UTF-8 Plain Text
Продолжительность : 25 м. 59 с.
Битрейт : 66 бит/сек
Count of elements : 347
Размер потока : 12,7 Кбайт (0%)
Язык : Korean
Default : Нет
Forced : Нет
Текст #21
Идентификатор : 24
Формат : UTF-8
Идентификатор кодека : S_TEXT/UTF8
Идентификатор кодека/Информация : UTF-8 Plain Text
Продолжительность : 25 м. 59 с.
Битрейт : 63 бит/сек
Count of elements : 347
Размер потока : 12,0 Кбайт (0%)
Язык : Malay
Default : Нет
Forced : Нет
Текст #22
Идентификатор : 25
Формат : UTF-8
Идентификатор кодека : S_TEXT/UTF8
Идентификатор кодека/Информация : UTF-8 Plain Text
Продолжительность : 25 м. 59 с.
Битрейт : 64 бит/сек
Count of elements : 347
Размер потока : 12,4 Кбайт (0%)
Язык : Norwegian Bokmal
Default : Нет
Forced : Нет
Текст #23
Идентификатор : 26
Формат : UTF-8
Идентификатор кодека : S_TEXT/UTF8
Идентификатор кодека/Информация : UTF-8 Plain Text
Продолжительность : 25 м. 59 с.
Битрейт : 65 бит/сек
Count of elements : 345
Размер потока : 12,5 Кбайт (0%)
Язык : Dutch
Default : Нет
Forced : Нет
Текст #24
Идентификатор : 27
Формат : UTF-8
Идентификатор кодека : S_TEXT/UTF8
Идентификатор кодека/Информация : UTF-8 Plain Text
Продолжительность : 25 м. 59 с.
Битрейт : 63 бит/сек
Count of elements : 345
Размер потока : 12,0 Кбайт (0%)
Язык : Polish
Default : Нет
Forced : Нет
Текст #25
Идентификатор : 28
Формат : UTF-8
Идентификатор кодека : S_TEXT/UTF8
Идентификатор кодека/Информация : UTF-8 Plain Text
Продолжительность : 25 м. 59 с.
Битрейт : 67 бит/сек
Count of elements : 347
Размер потока : 12,8 Кбайт (0%)
Заголовок : Brasil
Язык : Portuguese
Default : Нет
Forced : Нет
Текст #26
Идентификатор : 29
Формат : UTF-8
Идентификатор кодека : S_TEXT/UTF8
Идентификатор кодека/Информация : UTF-8 Plain Text
Продолжительность : 25 м. 59 с.
Битрейт : 66 бит/сек
Count of elements : 346
Размер потока : 12,7 Кбайт (0%)
Заголовок : Portugal
Язык : Portuguese
Default : Нет
Forced : Нет
Текст #27
Идентификатор : 30
Формат : UTF-8
Идентификатор кодека : S_TEXT/UTF8
Идентификатор кодека/Информация : UTF-8 Plain Text
Продолжительность : 25 м. 59 с.
Битрейт : 69 бит/сек
Count of elements : 346
Размер потока : 13,2 Кбайт (0%)
Язык : Romanian
Default : Нет
Forced : Нет
Текст #28
Идентификатор : 31
Формат : UTF-8
Идентификатор кодека : S_TEXT/UTF8
Идентификатор кодека/Информация : UTF-8 Plain Text
Продолжительность : 25 м. 59 с.
Битрейт : 106 бит/сек
Count of elements : 347
Размер потока : 20,3 Кбайт (0%)
Язык : Russian
Default : Нет
Forced : Нет
Текст #29
Идентификатор : 32
Формат : UTF-8
Идентификатор кодека : S_TEXT/UTF8
Идентификатор кодека/Информация : UTF-8 Plain Text
Продолжительность : 25 м. 59 с.
Битрейт : 58 бит/сек
Count of elements : 346
Размер потока : 11,1 Кбайт (0%)
Язык : Swedish
Default : Нет
Forced : Нет
Текст #30
Идентификатор : 33
Формат : UTF-8
Идентификатор кодека : S_TEXT/UTF8
Идентификатор кодека/Информация : UTF-8 Plain Text
Продолжительность : 25 м. 59 с.
Битрейт : 178 бит/сек
Count of elements : 347
Размер потока : 34,0 Кбайт (0%)
Язык : Tamil
Default : Нет
Forced : Нет
Текст #31
Идентификатор : 34
Формат : UTF-8
Идентификатор кодека : S_TEXT/UTF8
Идентификатор кодека/Информация : UTF-8 Plain Text
Продолжительность : 25 м. 59 с.
Битрейт : 171 бит/сек
Count of elements : 347
Размер потока : 32,6 Кбайт (0%)
Язык : Telugu
Default : Нет
Forced : Нет
Текст #32
Идентификатор : 35
Формат : UTF-8
Идентификатор кодека : S_TEXT/UTF8
Идентификатор кодека/Информация : UTF-8 Plain Text
Продолжительность : 25 м. 59 с.
Битрейт : 155 бит/сек
Count of elements : 347
Размер потока : 29,6 Кбайт (0%)
Язык : Thai
Default : Нет
Forced : Нет
Текст #33
Идентификатор : 36
Формат : UTF-8
Идентификатор кодека : S_TEXT/UTF8
Идентификатор кодека/Информация : UTF-8 Plain Text
Продолжительность : 25 м. 59 с.
Битрейт : 62 бит/сек
Count of elements : 320
Размер потока : 11,9 Кбайт (0%)
Язык : Turkish
Default : Нет
Forced : Нет
Текст #34
Идентификатор : 37
Формат : UTF-8
Идентификатор кодека : S_TEXT/UTF8
Идентификатор кодека/Информация : UTF-8 Plain Text
Продолжительность : 25 м. 59 с.
Битрейт : 60 бит/сек
Count of elements : 347
Размер потока : 11,4 Кбайт (0%)
Заголовок : 简体
Язык : Chinese
Default : Нет
Forced : Нет
Текст #35
Идентификатор : 38
Формат : UTF-8
Идентификатор кодека : S_TEXT/UTF8
Идентификатор кодека/Информация : UTF-8 Plain Text
Продолжительность : 25 м. 59 с.
Битрейт : 59 бит/сек
Count of elements : 347
Размер потока : 11,4 Кбайт (0%)
Заголовок : 繁體
Язык : Chinese
Default : Нет
Forced : Нет
Меню
00:00:00.000 : en:Amazon Original
00:00:04.000 : en:Scene 2
00:01:03.000 : en:Scene 3
00:02:04.000 : en:Scene 4
00:03:50.000 : en:Title Sequence
00:03:55.000 : en:Scene 6
00:06:24.000 : en:Scene 7
00:08:19.000 : en:Scene 8
00:11:58.000 : en:Scene 9
00:15:33.000 : en:Scene 10
00:18:53.000 : en:Scene 11
00:22:29.000 : en:Scene 12
00:25:20.000 : en:End Credits
-Скриншоты:


Смотреть онлайн

[trackeroc.org].34270.torrent  Магнет ссылка
Torrent: Registered   [ 2022-02-25 09:47 ]

Скачать торрент

28 KB

Status: checked
Completed: 183 times
Size: 10.54 GB
 

trackeroc.info (25-фев-22)

Similar torrent
Forum Topic Author Size
Квесты, я ищу, Поиск предметов, Hidden Object Paranormal Files 4: Hook Man's Legend / Паранормальные явления 4: Легенда о Человеке с крюком [RUS / ENG] (2019) trackeroc.org 1.15 GB
Квесты, я ищу, Поиск предметов, Hidden Object Paranormal Files 4: Hook Man's Legend / Паранормальные явления 4: Легенда о Человеке с крюком [RUS / ENG] (2019) trackeroc.info 1.37 GB
Зарубежные Синдбад: Легенда семи морей / Sinbad: Legend of the Seven Seas (2003) BDRip [H.264] Pro100Moder 1.46 GB
Зарубежные Легенда о воюющих царствах / Jue ji / Legend of Ravaging Dynasties (2016) WEB-DL [H.264/1080p-LQ] Pro100Moder 4.08 GB
[Profile] [PM]
Display posts from previous:    
Reply to topic

The time now is: Today 22:05

All times are GMT + 4 Hours



You cannot post new topics in this forum
You cannot reply to topics in this forum
You cannot edit your posts in this forum
You cannot delete your posts in this forum
You cannot vote in polls in this forum
You cannot attach files in this forum
You can download files in this forum