Контора (2006) DVDRip (сезон 1, серии 1-12 из 12) скачать торрент

Reply to topic

DL-List and Torrent activity [Update пиров]
Size:  5.22 GB   |    Registered:  21 day   |    Completed:  0 times

Seeder not seen: Never

 
 
 
 
 
Author Message

Captain ®

Longevity: 6 years 2 months

Posts: 2463

Location: Earth


Post 26-Sep-2015 08:20

[Quote]

КОНТОРА
«Когда магия правит миром»
- Производство: Россия / Студия "Панорама"
Жанр: фантастика, триллер, детектив
Режиссер: Дмитрий Парменов
Актеры: Евгений Пронин, Лаура Пицхелаури, Игорь Иванов, Андрей Астраханцев, Ромуальд Макаренко, Марианна Семенова, Вадим Яковлев, Владислав Юрчикевич, Татьяна Аптикеев, Михаил Николаев и др.
Описание:
Когда-то они были как все обычные люди. Он был участковым инспектором, она – журналистом, писавшим обо всем необычном. Но с тех пор, как они стали агентами сверхсекретной спецслужбы, занимающейся аномальными явлениями, их жизнь перенеслась как будто в другой мир. С обычным миром связь осталась через Курьера, а задания получали от Куратора, перед ним же и отчитывались.. .

Возраст: 16+ (зрителям, достигшим 16 лет)
Продолжительность: ~00:48:00 серия
Качество видео: DVDRip
Видео: Xvid, 720x400 (16:9), ~1095 kbps
Аудио: AC3, 2 ch, 192 kbps

MediaInfo:

General
Complete name : Контора\Kontora_S1_1-12iz12_2006_XviD_DVDRip\01.Хранитель ужаса.avi
Format : AVI
Format/Info : Audio Video Interleave
File size : 446 MiB
Duration : 48 min 1 s
Overall bit rate : 1 297 kb/s
Writing library : VirtualDub2 build 43602/release
Video
ID : 0
Format : MPEG-4 Visual
Format profile : Advanced [email protected]
Format settings : BVOP2
Format settings, BVOP : 2
Format settings, QPel : No
Format settings, GMC : No warppoints
Format settings, Matrix : Default (H.263)
Codec ID : XVID
Codec ID/Hint : XviD
Duration : 48 min 1 s
Bit rate : 1 095 kb/s
Width : 720 pixels
Height : 400 pixels
Display aspect ratio : 16:9
Frame rate : 25.000 FPS
Color space : YUV
Chroma subsampling : 4:2:0
Bit depth : 8 bits
Scan type : Progressive
Compression mode : Lossy
Bits/(Pixel*Frame) : 0.152
Stream size : 376 MiB (84%)
Writing library : XviD 69
Audio
ID : 1
Format : AC-3
Format/Info : Audio Coding 3
Commercial name : Dolby Digital
Codec ID : 2000
Duration : 48 min 1 s
Bit rate mode : Constant
Bit rate : 192 kb/s
Channel(s) : 2 channels
Channel layout : L R
Sampling rate : 48.0 kHz
Frame rate : 31.250 FPS (1536 SPF)
Bit depth : 16 bits
Compression mode : Lossy
Stream size : 66.0 MiB (15%)
Alignment : Aligned on interleaves
Interleave, duration : 40 ms (1.00 video frame)
Interleave, preload duration : 512 ms
Service kind : Complete Main
-Скриншоты:


Смотреть онлайн

[trackeroc.org].8331.torrent  Магнет ссылка
Torrent: Registered   [ 2020-06-22 22:45 ]

Скачать торрент

28 KB

Status: checked
Completed: 124 times
Size: 5.22 GB
 

Admin (26-сен-15)

Similar torrent
Forum Topic Author Size
Ужасы ,мистика ,триллеры Студентки в кегельбане беса / Sorority Babes in the Slimeball Bowl-O-Rama (1988) DVDRip [H.264] Captain 1.09 GB
Зарубежные Летающий корабль-призрак / Корабль-призрак / Sora tobu yuureisen / The Flying Ghost Ship (1969) DVDRip [H.264/720p] Captain 1.69 GB
Зарубежные Шенмуе / Shenmue: The Movie (2001) DVDRip [H.264/720p] Captain 2.8 GB
Зарубежные Галерианы: Рион / Galerians: Rion (2004) DVDRip [H.264/720p] Captain 2.29 GB

_________________
[Profile] [PM]
Display posts from previous:    
Reply to topic

The time now is: Today 03:44

All times are GMT + 4 Hours



You cannot post new topics in this forum
You cannot reply to topics in this forum
You cannot edit your posts in this forum
You cannot delete your posts in this forum
You cannot vote in polls in this forum
You cannot attach files in this forum
You can download files in this forum