Калейдоскоп ужасов / Creepshow (2019) WEBRip [H.264/1080p] (сезон 1, серии 1-6 из 6) NewStudio скачать торрент

Reply to topic

DL-List and Torrent activity [Update пиров]
Size:  16.9 GB   |    Registered:  13 days   |    Completed:  0 times
Seeders:  4  [  458 KB/s  ]   Show peers in full details
 
 
 
 
Author Message

Moder ®

Longevity: 6 years 7 months

Posts: 2536

Location: Earth


Post 20-Nov-2020 19:08

[Quote]

Калейдоскоп ужасов / Creepshow «The Most Fun You'll Ever Have Being Scared»- Производство: США / Shudder, The Cartel, Monster Agency Productions
Жанр: ужасы, фэнтези, комедия, фантастика
Режиссер: Джон Харрисон, Роксанна Бенжамин, Дэвид Брукнер
Актеры: Кэри Джонс, Эдриенн Барбо, Логан Аллен, Connor Christie, Брюс Дэвисон, Дэйв МакДональд, Мелисса Сент-Аманд, Ханна Бэйрфут, Чад Коллинз, Джанкарло Эспозито и др.
Описание:
Жуткий призрак открывает сундук, где лежат комиксы со страшными рассказами. В 12 историях найдётся место американским оборотням, кровожадному пугалу, зомби, хитрому джинну, мстительным призракам и многим другим ужасным монстрам.

Продолжительность: ~00:45:00 серия
Качество видео: WEBRip
Перевод: Многоголосый профессиональный (NewStudio)
Субтитры: Русские (Forced, full), английские (full, SDH)
Видео: AVC/H.264, 1920x1080, ~8586 Kbps
Аудио 1: AC3, 2 ch, 192 Kbps - Русский
Аудио 2: E-AC-3, 2 ch, 224 Kbps - Английский

Содержание:


01. Серая дрянь/Дом Головы / Gray Matter/The House of the Head
02. Злой волк/Палец / Bad Wolf Down/The Finger
03. Канун дня всех святых/Человек в чемодане / All Hallows Eve/The Man in the Suitcase
04. Компаньон/Лучшая сторона Лидии Лэйн / The Companion/Lydia Layne's Better Half
05. Ночь лапки/Непростые времена в Маски-Холлер / Night of the Paw/Times is Tough in Musky Holler
06. Под кожей/У серебряных вод озера Шамплейн / Skincrawlers/By the Silver Water of Lake Champlain

MediaInfo:

Общее
Формат : Matroska
Версия формата : Version 4
Размер файла : 2,88 Гбайт
Продолжительность : 45 м. 51 с.
Общий поток : 9006 Кбит/сек
Дата кодирования : UTC 2019-10-01 19:15:43
Программа кодирования : mkvmerge v8.3.0 ('Over the Horizon') 32bit
Библиотека кодирования : libebml v1.3.1 + libmatroska v1.4.2
Attachments : poster.png
Видео
Идентификатор : 1
Формат : AVC
Формат/Информация : Advanced Video Codec
Профиль формата : [email protected]
Настройки формата : CABAC / 4 Ref Frames
Параметр CABAC формата : Да
Параметр RefFrames формата : 4 кадра
Идентификатор кодека : V_MPEG4/ISO/AVC
Продолжительность : 45 м. 51 с.
Вид битрейта : Постоянный
Битрейт : 8586 Кбит/сек
Номинальный битрейт : 10000 Кбит/сек
Ширина : 1920 пикселей
Высота : 1080 пикселей
Соотношение сторон : 16:9
Режим частоты кадров : Постоянный
Частота кадров : 23,976 (24000/1001) кадра/сек
Цветовое пространство : YUV
Субдискретизация насыщенности : 4:2:0
Битовая глубина : 8 бит
Тип развёртки : Прогрессивная
Бит/(Пиксели*Кадры) : 0.173
Размер потока : 2,75 Гбайт (95%)
Язык : English
Default : Да
Forced : Нет
Цветовой диапазон : Limited
Основные цвета : BT.709
Характеристики трансфера : BT.709
Коэффициенты матрицы : BT.709
Аудио #1
Идентификатор : 2
Формат : AC-3
Формат/Информация : Audio Coding 3
Коммерческое название : Dolby Digital
Идентификатор кодека : A_AC3
Продолжительность : 45 м. 51 с.
Вид битрейта : Постоянный
Битрейт : 192 Кбит/сек
Каналы : 2 канала
ChannelLayout : L R
Частота : 48,0 КГц
Частота кадров : 31,250 кадров/сек (1536 SPF)
Битовая глубина : 16 бит
Метод сжатия : С потерями
Размер потока : 63,0 Мбайт (2%)
Заголовок : NewStudio
Язык : Russian
ServiceKind/String : Complete Main
Default : Да
Forced : Нет
Аудио #2
Идентификатор : 3
Формат : E-AC-3
Формат/Информация : Enhanced AC-3
Коммерческое название : Dolby Digital Plus
Идентификатор кодека : A_EAC3
Продолжительность : 45 м. 51 с.
Вид битрейта : Постоянный
Битрейт : 224 Кбит/сек
Каналы : 2 канала
ChannelLayout : L R
Частота : 48,0 КГц
Частота кадров : 31,250 кадров/сек (1536 SPF)
Метод сжатия : С потерями
Размер потока : 73,5 Мбайт (2%)
Язык : English
ServiceKind/String : Complete Main
Default : Нет
Forced : Нет
Текст #1
Идентификатор : 4
Формат : ASS
Идентификатор кодека : S_TEXT/ASS
Идентификатор кодека/Информация : Advanced Sub Station Alpha
Продолжительность : 16 м. 34 с.
Битрейт : 1 бит/сек
ElementCount : 3
Метод сжатия : Без потерь
Размер потока : 168 байт (0%)
Заголовок : Forced
Язык : Russian
Default : Да
Forced : Да
Текст #2
Идентификатор : 5
Формат : UTF-8
Идентификатор кодека : S_TEXT/UTF8
Идентификатор кодека/Информация : UTF-8 Plain Text
Продолжительность : 43 м. 24 с.
Битрейт : 55 бит/сек
ElementCount : 390
Размер потока : 17,5 Кбайт (0%)
Заголовок : Antonio
Язык : Russian
Default : Нет
Forced : Нет
Текст #3
Идентификатор : 6
Формат : UTF-8
Идентификатор кодека : S_TEXT/UTF8
Идентификатор кодека/Информация : UTF-8 Plain Text
Продолжительность : 41 м. 59 с.
Битрейт : 42 бит/сек
ElementCount : 471
Размер потока : 13,1 Кбайт (0%)
Язык : English
Default : Нет
Forced : Нет
Текст #4
Идентификатор : 7
Формат : UTF-8
Идентификатор кодека : S_TEXT/UTF8
Идентификатор кодека/Информация : UTF-8 Plain Text
Продолжительность : 45 м. 41 с.
Битрейт : 49 бит/сек
ElementCount : 731
Размер потока : 16,6 Кбайт (0%)
Заголовок : SDH
Язык : English
Default : Нет
Forced : Нет
-Скриншоты:


Смотреть онлайн

[trackeroc.org].32232.torrent  Магнет ссылка
Torrent: Registered   [ 2020-11-20 19:08 ]

Скачать торрент

44 KB

Status: checked
Completed: 33 times
Size: 16.9 GB
 

trackeroc.org (20-ноя-20)

Similar torrent
Forum Topic Author Size
Зарубежные сериалы Калейдоскоп ужасов 3 / Creepshow 3 (2006) BDRip [H.265/1080p] [10-bit] Moder 9.81 GB
Зарубежные сериалы Калейдоскоп ужасов 2 / Creepshow 2 (1987) BDRip [H.265/1080p] [10-bit] Moder 9.53 GB
Зарубежные сериалы Калейдоскоп ужасов / Creepshow (1982) BDRip [H.265/1080p] [10-bit] Moder 13.27 GB
Квесты, я ищу, Поиск предметов, Hidden Object Halloween Stories 3: Horror Movie / Хеллоуинские истории 3: Фильм ужасов. [RUS / ENG] (2019) Admin 938 MB

_________________
[Profile] [PM]
Display posts from previous:    
Reply to topic

The time now is: Today 02:58

All times are GMT + 4 Hours



You cannot post new topics in this forum
You cannot reply to topics in this forum
You cannot edit your posts in this forum
You cannot delete your posts in this forum
You cannot vote in polls in this forum
You cannot attach files in this forum
You can download files in this forum