Калейдоскоп ужасов 3 / Creepshow 3 (2006) BDRip [H.265/1080p] [10-bit] скачать торрент

Reply to topic

DL-List and Torrent activity [Update пиров]
Size:  9.81 GB   |    Registered:  22 days   |    Completed:  0 times

Seeder not seen: Never

 
 
 
 
 
Author Message

Captain ®

Longevity: 6 years 5 months

Posts: 2560

Location: Earth


Post 07-Sep-2020 07:31

[Quote]

Калейдоскоп ужасов 3 / Creepshow 3
«Got Creep?»
- Производство: США / Taurus Entertainment Company, Creepy Film Productions
Жанр: ужасы, фэнтези, комедия
Режиссер: Ана Клавелл, Джеймс Гленн Дьюделсон
Актеры: Стефани Петти, Рой Абрамсон, Сьюзэн Шрамм, Кэтлин Элизабет, Мэтт Фромм, Натан Керклэнд, Сэльма Пинкард, Брайан Джейкобс, Леонардо Миллан
Описание: Антология включает в себя пять эпизодов: «Жена профессора Дэйтона», «Элис», «Рэйчел, девушка по вызову», «Радио», «Одержимый пес».

Возраст: 18+ (зрителям, достигшим 18 лет. запрещено для детей)
Рейтинг MPAA: R (лицам до 17 лет обязательно присутствие взрослого)
Релиз от: Мичман (HEVC-CLUB)
Продолжительность: 01:44:18
Качество видео: BDRip
Перевод: Многоголосый профессиональный
Субтитры: Английские
Видео: HEVC/H.265, 1918x1080, ~13,1 Мbps
Аудио 1: AC3, 2 ch, 160 Kbps - Русский, MVO
Аудио 2: AC3, 6 ch, 224 Kbps - Английский

MediaInfo:

==============================
x265 [info]: frame I: Avg QP:18.78 kb/s
x265 [info]: frame P: Avg QP:20.17 kb/s
x265 [info]: frame B: Avg QP:21.95 kb/s
==============================
Общее
Уникальный идентификатор : 135801812873752128172405150942969227811 (0x662A7A508C41ECC887B1AEBFB3486A23)
Полное имя : R:\Creepshow 3 (2006) BDRip-HEVC 1080p.mkv
Формат : Matroska
Версия формата : Version 4 / Version 2
Размер файла : 9,81 Гбайт
Продолжительность : 1 ч. 44 м.
Общий поток : 13,5 Мбит/сек
Название фильма : Creepshow 3 (2007)
Дата кодирования : UTC 2020-08-19 14:41:31
Программа кодирования : mkvmerge v49.0.0 ('Sick Of Losing Soulmates') 64-bit
Библиотека кодирования : libebml v1.4.0 + libmatroska v1.6.1
Обложка : Yes
Attachments : cover
Видео
Идентификатор : 1
Формат : HEVC
Формат/Информация : High Efficiency Video Coding
Профиль формата : Main [email protected]@High
Идентификатор кодека : V_MPEGH/ISO/HEVC
Продолжительность : 1 ч. 44 м.
Битрейт : 13,1 Мбит/сек
Ширина : 1918 пикселей
Высота : 1080 пикселей
Соотношение сторон : 16:9
Режим частоты кадров : Постоянный
Частота кадров : 23,976 (23976/1000) кадра/сек
Частота кадров в оригинале : 23,976 (24000/1001) кадра/сек
Цветовое пространство : YUV
Субдискретизация насыщенности : 4:2:0
Битовая глубина : 10 бит
Бит/(Пиксели*Кадры) : 0.263
Размер потока : 9,53 Гбайт (97%)
Библиотека кодирования : x265 3.3+1-g554c887ac:[Windows][MSVC 1924][64 bit] 10bit
Настройки программы : cpuid=1111039 / frame-threads=3 / numa-pools=12 / wpp / no-pmode / no-pme / no-psnr / no-ssim / log-level=2 / input-csp=1 / input-res=1918x1080 / interlace=0 / total-frames=145767 / level-idc=41 / high-tier=1 / uhd-bd=0 / ref=5 / no-allow-non-conformance / no-repeat-headers / annexb / no-aud / no-hrd / info / hash=0 / no-temporal-layers / open-gop / min-keyint=23 / keyint=240 / gop-lookahead=0 / bframes=8 / b-adapt=2 / b-pyramid / bframe-bias=0 / rc-lookahead=60 / lookahead-slices=4 / scenecut=40 / hist-scenecut=0 / radl=0 / no-splice / no-intra-refresh / ctu=32 / min-cu-size=8 / rect / amp / max-tu-size=32 / tu-inter-depth=4 / tu-intra-depth=4 / limit-tu=1 / rdoq-level=2 / dynamic-rd=0.00 / no-ssim-rd / signhide / no-tskip / nr-intra=0 / nr-inter=0 / no-constrained-intra / no-strong-intra-smoothing / max-merge=4 / limit-refs=2 / limit-modes / me=3 / subme=7 / merange=57 / temporal-mvp / no-frame-dup / no-hme / weightp / weightb / no-analyze-src-pics / deblock=-3:-3 / no-sao / no-sao-non-deblock / rd=6 / selective-sao=0 / no-early-skip / rskip / no-fast-intra / no-tskip-fast / no-cu-lossless / no-b-intra / no-splitrd-skip / rdpenalty=0 / psy-rd=2.00 / psy-rdoq=1.00 / no-rd-refine / no-lossless / cbqpoffs=0 / crqpoffs=0 / rc=crf / crf=20.0 / qcomp=0.65 / qpstep=4 / stats-write=0 / stats-read=0 / vbv-maxrate=50000 / vbv-bufsize=50000 / vbv-init=0.9 / crf-max=0.0 / crf-min=0.0 / ipratio=1.40 / pbratio=1.30 / aq-mode=1 / aq-strength=1.00 / no-cutree / zone-count=0 / no-strict-cbr / qg-size=32 / no-rc-grain / qpmax=69 / qpmin=0 / no-const-vbv / sar=1 / overscan=0 / videoformat=5 / range=0 / colorprim=1 / transfer=1 / colormatrix=1 / chromaloc=0 / display-window=0 / cll=0,0 / min-luma=0 / max-luma=1023 / log2-max-poc-lsb=8 / vui-timing-info / vui-hrd-info / slices=1 / no-opt-qp-pps / no-opt-ref-list-length-pps / no-multi-pass-opt-rps / scenecut-bias=0.05 / hist-threshold=0.01 / no-opt-cu-delta-qp / no-aq-motion / no-hdr10 / no-hdr10-opt / no-dhdr10-opt / no-idr-recovery-sei / analysis-reuse-level=0 / analysis-save-reuse-level=0 / analysis-load-reuse-level=0 / scale-factor=0 / refine-intra=0 / refine-inter=0 / refine-mv=1 / refine-ctu-distortion=0 / no-limit-sao / ctu-info=0 / no-lowpass-dct / refine-analysis-type=0 / copy-pic=1 / max-ausize-factor=1.0 / no-dynamic-refine / no-single-sei / no-hevc-aq / no-svt / no-field / qp-adaptation-range=1.00 / no-scenecut-aware-qpconformance-window-offsets / right=0 / bottom=0
Default : Да
Forced : Нет
Цветовой диапазон : Limited
Основные цвета : BT.709
Характеристики трансфера : BT.709
Коэффициенты матрицы : BT.709
Аудио #1
Идентификатор : 2
Формат : AC-3
Формат/Информация : Audio Coding 3
Идентификатор кодека : A_AC3
Продолжительность : 1 ч. 44 м.
Вид битрейта : Постоянный
Битрейт : 160 Кбит/сек
Каналы : 2 канала
Расположение каналов : Front: L R
Частота : 48,0 КГц
Частота кадров : 31,250 кадров/сек (1536 SPF)
Битовая глубина : 16 бит
Метод сжатия : С потерями
Размер потока : 119 Мбайт (1%)
Заголовок : MVO
Язык : Russian
ServiceKind/String : Complete Main
Default : Да
Forced : Нет
Аудио #2
Идентификатор : 3
Формат : AC-3
Формат/Информация : Audio Coding 3
Идентификатор кодека : A_AC3
Продолжительность : 1 ч. 44 м.
Вид битрейта : Постоянный
Битрейт : 224 Кбит/сек
Каналы : 6 каналов
Расположение каналов : Front: L C R, Side: L R, LFE
Частота : 48,0 КГц
Частота кадров : 31,250 кадров/сек (1536 SPF)
Битовая глубина : 16 бит
Метод сжатия : С потерями
Размер потока : 167 Мбайт (2%)
Заголовок : Original
Язык : English
ServiceKind/String : Complete Main
Default : Нет
Forced : Нет
Текст
Идентификатор : 4
Формат : UTF-8
Идентификатор кодека : S_TEXT/UTF8
Идентификатор кодека/Информация : UTF-8 Plain Text
Продолжительность : 1 ч. 38 м.
Битрейт : 45 бит/сек
ElementCount : 1205
Размер потока : 32,7 Кбайт (0%)
Язык : English
Default : Нет
Forced : Нет
Меню
00:00:00.000 : en:1. Universal Remote
00:08:51.434 : en:2. Professor Dayton
00:15:54.601 : en:3. Technical Difficulties
00:23:49.435 : en:4. The Voice of Reason
00:36:49.435 : en:5. Diversify
00:45:01.236 : en:6. The End Is Near
00:51:18.736 : en:7. Anything You Want
00:58:25.936 : en:8. Love Has Its Ways
01:08:00.870 : en:9. A Prank
01:14:21.537 : en:10. Bad Dog
01:23:03.138 : en:11. Party Time
01:29:24.438 : en:12. The Kid's a Goner
01:38:49.538 : en:13. The Wedding
01:41:24.938 : en:14. End Credits
-Скриншоты:


Смотреть онлайн

[trackeroc.org].31758.torrent  Магнет ссылка
Torrent: Registered   [ 2020-09-07 07:31 ]

Скачать торрент

50 KB

Status: checked
Completed: 13 times
Size: 9.81 GB
 

trackeroc.org (07-сен-20)

Similar torrent
Forum Topic Author Size
Ужасы ,мистика ,триллеры Калейдоскоп ужасов 2 / Creepshow 2 (1987) BDRip [H.265/1080p] [10-bit] Captain 9.53 GB
Ужасы ,мистика ,триллеры Калейдоскоп ужасов / Creepshow (1982) BDRip [H.265/1080p] [10-bit] Captain 13.27 GB
Квесты, я ищу, Поиск предметов, Hidden Object Halloween Stories 3: Horror Movie / Хеллоуинские истории 3: Фильм ужасов. [RUS / ENG] (2019) Admin 938 MB
Зарубежные сериалы Американская история ужасов / American Horror Story [сезон 8 / Серии: 1 из 11 ] (2018) Admin 598 MB

_________________
[Profile] [PM]
Display posts from previous:    
Reply to topic

The time now is: Today 06:23

All times are GMT + 4 Hours



You cannot post new topics in this forum
You cannot reply to topics in this forum
You cannot edit your posts in this forum
You cannot delete your posts in this forum
You cannot vote in polls in this forum
You cannot attach files in this forum
You can download files in this forum