Женщина / The Woman (2011) BDRip [H.264/1080p] [AVO,VO] скачать торрент

Reply to topic

DL-List and Torrent activity [Update пиров]
Size:  8.84 GB   |    Registered:  5 months 22 days   |    Completed:  0 times

Seeder not seen: Never

 
 
 
 
 
Author Message

Moder ®

Longevity: 6 years 10 months

Posts: 2506

Location: Earth


Post 04-Sep-2020 21:26

[Quote]

Женщина / The Woman«Not every monster lives in the wild»- Производство: США / Modernciné
Жанр: ужасы, триллер
Режиссер: Лаки Макки
Актеры: Шон Бриджерс, Анджела Беттис, Поллианна МакИнтош, Лорен Эшли, Картер Зак, Рэнд Шайла, Молхузен Карли, Бэйкер Брэндон, Джеральд Фуллер, Крис Кжиковски, Марсия Беннетт
Описание:
Успешный юрист и отец троих детей Крис находит в лесу дикую женщину. Выследив и поймав её, он привозит дикарку к себе домой и заковывает в кандалы в погребе, намереваясь сделать из пленницы цивилизованную женщину. Крис убеждает жену и детей держать это в тайне, но вскоре ситуация выходит из-под контроля.

Возраст: 18+ (зрителям, достигшим 18 лет. запрещено для детей)
Рейтинг MPAA: R (лицам до 17 лет обязательно присутствие взрослого)
Релиз от: akaClient
Продолжительность: 01:42:34
Качество видео: BDRip
Перевод: Авторский, одноголосый любительский (Дольский, Хэм)
Субтитры: Русские (Full), английские (Full)
Видео: AVC/H.264, 1920х1080, ~10 Mbps
Аудио 1: AC3, 6 ch, 640 Kbps, русский (AVO)
Аудио 2: AC3, 2 ch, 192 Kbps, русский (VO)
Аудио 3: DTS, 6 ch, 1509 Kbps, английский (оригинал)

MediaInfo:

Общее
Полное имя : The.Woman.2011.BDRip.1080p.2xRusAC3.EngDTS.Sub.Ru.En.mkv
Формат : Matroska
Версия формата : Version 2
Размер файла : 8,84 Гбайт
Продолжительность : 1 ч. 42 м.
Общий поток : 12,3 Мбит/сек
Название фильма : The Woman (2011) BDRip 1080p
Дата кодирования : UTC 2019-04-08 09:45:18
Программа кодирования : mkvmerge v3.4.0 ('Rapunzel') сборка от May 15 2010 09:38:20
Библиотека кодирования : libebml v0.8.0 + libmatroska v0.9.0
Видео
Идентификатор : 1
Формат : AVC
Формат/Информация : Advanced Video Codec
Профиль формата : [email protected]
Настройки формата : CABAC / 4 Ref Frames
Параметр CABAC формата : Да
Параметр RefFrames формата : 4 кадра
Идентификатор кодека : V_MPEG4/ISO/AVC
Продолжительность : 1 ч. 42 м.
Битрейт : 10 000 Кбит/сек
Ширина : 1 920 пикселей
Высота : 1 080 пикселей
Соотношение сторон : 16:9
Режим частоты кадров : Постоянный
Частота кадров : 24,000 кадра/сек
Цветовое пространство : YUV
Субдискретизация насыщенности : 4:2:0
Битовая глубина : 8 бит
Тип развёртки : Прогрессивная
Бит/(Пиксели*Кадры) : 0.201
Размер потока : 6,99 Гбайт (79%)
Заголовок : The Woman (2011) BDRip 1080p
Библиотека кодирования : x264 core 146 r2538 121396c
Настройки программы : cabac=1 / ref=4 / deblock=1:-3:-3 / analyse=0x3:0x133 / me=umh / subme=11 / psy=1 / psy_rd=1.00:0.00 / mixed_ref=1 / me_range=32 / chroma_me=1 / trellis=2 / 8x8dct=1 / cqm=0 / deadzone=21,11 / fast_pskip=0 / chroma_qp_offset=-2 / threads=12 / lookahead_threads=2 / sliced_threads=0 / nr=0 / decimate=0 / interlaced=0 / bluray_compat=0 / constrained_intra=0 / bframes=10 / b_pyramid=2 / b_adapt=2 / b_bias=0 / direct=3 / weightb=1 / open_gop=0 / weightp=2 / keyint=240 / keyint_min=24 / scenecut=40 / intra_refresh=0 / rc=2pass / mbtree=0 / bitrate=10000 / ratetol=1.0 / qcomp=0.60 / qpmin=0 / qpmax=69 / qpstep=4 / cplxblur=20.0 / qblur=0.5 / ip_ratio=1.40 / pb_ratio=1.30 / aq=1:0.80
Язык : English
Default : Да
Forced : Нет
Duration_Source : General_Duration
Аудио #1
Идентификатор : 2
Формат : AC-3
Формат/Информация : Audio Coding 3
Коммерческое название : Dolby Digital
Идентификатор кодека : A_AC3
Продолжительность : 1 ч. 42 м.
Вид битрейта : Постоянный
Битрейт : 640 Кбит/сек
Каналы : 6 каналов
Channel layout : L R C LFE Ls Rs
Частота : 48,0 КГц
Частота кадров : 31,250 кадров/сек (1536 SPF)
Метод сжатия : С потерями
Размер потока : 470 Мбайт (5%)
Заголовок : Rus AVO AC3 5.1 @ 640 kbps [Dolskiy]
Язык : Russian
Service kind : Complete Main
Default : Да
Forced : Нет
Duration_Source : General_Duration
Аудио #2
Идентификатор : 3
Формат : AC-3
Формат/Информация : Audio Coding 3
Коммерческое название : Dolby Digital
Идентификатор кодека : A_AC3
Продолжительность : 1 ч. 42 м.
Вид битрейта : Постоянный
Битрейт : 192 Кбит/сек
Каналы : 2 канала
Channel layout : L R
Частота : 48,0 КГц
Частота кадров : 31,250 кадров/сек (1536 SPF)
Метод сжатия : С потерями
Размер потока : 141 Мбайт (2%)
Заголовок : Rus AVO AC3 2.0 @ 192 kbps [Хэм]
Язык : Russian
Service kind : Complete Main
Default : Нет
Forced : Нет
Duration_Source : General_Duration
Аудио #3
Идентификатор : 4
Формат : DTS
Формат/Информация : Digital Theater Systems
Идентификатор кодека : A_DTS
Продолжительность : 1 ч. 42 м.
Вид битрейта : Постоянный
Битрейт : 1 509 Кбит/сек
Каналы : 6 каналов
Channel layout : C L R Ls Rs LFE
Частота : 48,0 КГц
Частота кадров : 93,750 кадра/сек (512 SPF)
Битовая глубина : 24 бит
Метод сжатия : С потерями
Размер потока : 1,08 Гбайт (12%)
Заголовок : Eng DTS 5.1 24 Bit @ 1509 kbps
Язык : English
Default : Нет
Forced : Нет
Duration_Source : General_Duration
Текст #1
Идентификатор : 5
Формат : UTF-8
Идентификатор кодека : S_TEXT/UTF8
Идентификатор кодека/Информация : UTF-8 Plain Text
Заголовок : RuSub Full by akaClient
Язык : Russian
Default : Нет
Forced : Нет
Текст #2
Идентификатор : 6
Формат : UTF-8
Идентификатор кодека : S_TEXT/UTF8
Идентификатор кодека/Информация : UTF-8 Plain Text
Заголовок : EnSub Full
Язык : English
Default : Нет
Forced : Нет
-Скриншоты:


Смотреть онлайн

[trackeroc.org].31733.torrent  Магнет ссылка
Torrent: Registered   [ 2020-09-04 21:26 ]

Скачать торрент

45 KB

Status: checked
Completed: 46 times
Size: 8.84 GB
 

trackeroc.org (04-сен-20), www.trackeroc.ru (05-сен-20)

Similar torrent
Forum Topic Author Size
Фантастика ,Фэнтези Чудо-женщина: 1984 / Wonder Woman 1984 (2020) WEB-DLRip | HDRezka Studio Moder 1.45 GB
Квесты, я ищу, Поиск предметов, Hidden Object Lost Legends: The Weeping Woman Collector's Edition/Забытые легенды. Плачущая женщина (2014) (Big Fish Games) (RUS) [P] HOPE 657 MB
XBox 360E | Игры Cat Woman / Женщина-Кошка [ENG/RUS/MIX] [XBox] Moder 2.2 GB

_________________
[Profile] [PM]
Display posts from previous:    
Reply to topic

The time now is: Today 18:48

All times are GMT + 4 Hours



You cannot post new topics in this forum
You cannot reply to topics in this forum
You cannot edit your posts in this forum
You cannot delete your posts in this forum
You cannot vote in polls in this forum
You cannot attach files in this forum
You can download files in this forum