Хон Гиль-дон / Hong Gil-dong (1986) DVDRip [H.264] скачать торрент

Reply to topic

DL-List and Torrent activity [Update пиров]
Size:  1.46 GB   |    Registered:  18 days   |    Completed:  0 times

Seeder not seen: Never

 
 
 
 
 
Author Message

Captain ®

Longevity: 6 years 5 months

Posts: 2560

Location: Earth


Post 11-Sep-2020 22:41

[Quote]

Хон Гиль-дон / Hong Gil-dong - Производство: Северная Корея / Hong-Jong Corporation
Жанр: Фэнтези, боевик, приключения
Режиссер: Ким Гир-ин, Щин Сан-ок
Актеры: Ли Ён-хо, Чхан Ге-сон, Чан Сон-хи, Чхве Сон-бу, Хван Ён-иль, Ким Юн-хон, Ли Хак-чхоль, Пак Ён-хак, Ли Ин-гвон, Ли Рён-ун
Описание:
Народный заступник Хон Гиль-дон в одиночку, в совершенстве владея приёмами тхэквондо и ловко действуя мечом, справляется со всей нечистью, что портила жизнь простым корейцам ещё в XVII веке.

Продолжительность: 01:44:32
Качество видео: DVDRip
Перевод: Дублированный
Субтитры: Отсутствуют
Видео: AVC/H.264, 700x574 (4:3), ~1800 Kbps
Аудио: AC3, 2 ch, 192 Kbps

MediaInfo:

Общее
Формат : Matroska
Версия формата : Version 4
Размер файла : 1,46 Гбайт
Продолжительность : 1 ч. 44 м.
Общий поток : 1 996 Кбит/сек
Название фильма : Hong kil dong.Hon Gil Don.Extended Cut
Дата кодирования : UTC 2018-11-08 19:44:25
Программа кодирования : mkvmerge v8.5.2 ('Crosses') 64bit
Библиотека кодирования : libebml v1.3.3 + libmatroska v1.4.4
Видео
Идентификатор : 1
Формат : AVC
Формат/Информация : Advanced Video Codec
Профиль формата : [email protected]
Настройки формата : CABAC / 12 Ref Frames
Параметр CABAC формата : Да
Параметр RefFrames формата : 12 кадров
Идентификатор кодека : V_MPEG4/ISO/AVC
Продолжительность : 1 ч. 44 м.
Битрейт : 1 802 Кбит/сек
Ширина : 700 пикселей
Высота : 574 пикселя
Соотношение сторон : 4:3
Режим частоты кадров : Постоянный
Частота кадров : 25,000 кадров/сек
Цветовое пространство : YUV
Субдискретизация насыщенности : 4:2:0
Битовая глубина : 8 бит
Тип развёртки : Прогрессивная
Бит/(Пиксели*Кадры) : 0.179
Размер потока : 1,32 Гбайт (90%)
Заголовок : Hong kil dong.Hon Gil Don.Extended Cut
Библиотека кодирования : x264 core 155 r2901 7d0ff22
Настройки программы : cabac=1 / ref=12 / deblock=1:-1:-1 / analyse=0x3:0x113 / me=umh / subme=11 / psy=1 / psy_rd=1.00:0.00 / mixed_ref=1 / me_range=32 / chroma_me=1 / trellis=2 / 8x8dct=1 / cqm=0 / deadzone=21,11 / fast_pskip=0 / chroma_qp_offset=-2 / threads=3 / lookahead_threads=1 / sliced_threads=0 / nr=0 / decimate=1 / interlaced=0 / bluray_compat=0 / constrained_intra=0 / bframes=10 / b_pyramid=2 / b_adapt=2 / b_bias=0 / direct=3 / weightb=1 / open_gop=0 / weightp=2 / keyint=250 / keyint_min=25 / scenecut=40 / intra_refresh=0 / rc=2pass / mbtree=0 / bitrate=1802 / ratetol=1.0 / qcomp=0.60 / qpmin=0 / qpmax=69 / qpstep=4 / cplxblur=20.0 / qblur=0.5 / ip_ratio=1.40 / pb_ratio=1.30 / aq=1:1.00
Язык : Korean
Default : Нет
Forced : Нет
Аудио
Идентификатор : 2
Формат : AC-3
Формат/Информация : Audio Coding 3
Коммерческое название : Dolby Digital
Идентификатор кодека : A_AC3
Продолжительность : 1 ч. 44 м.
Вид битрейта : Постоянный
Битрейт : 192 Кбит/сек
Каналы : 2 канала
Channel layout : L R
Частота : 48,0 КГц
Частота кадров : 31,250 кадров/сек (1536 SPF)
Метод сжатия : С потерями
Размер потока : 144 Мбайт (10%)
Заголовок : Dub (к/с М. Горького) со вставками VO (allecs2010)
Язык : Russian
Service kind : Complete Main
Default : Нет
Forced : Нет
-Скриншоты:


Смотреть онлайн

[trackeroc.org].31807.torrent  Магнет ссылка
Torrent: Registered   [ 2020-09-11 22:41 ]

Скачать торрент

15 KB

Status: checked
Completed: 7 times
Size: 1.46 GB
 

trackeroc.org (11-сен-20)


_________________
[Profile] [PM]
Display posts from previous:    
Reply to topic

The time now is: Today 05:58

All times are GMT + 4 Hours



You cannot post new topics in this forum
You cannot reply to topics in this forum
You cannot edit your posts in this forum
You cannot delete your posts in this forum
You cannot vote in polls in this forum
You cannot attach files in this forum
You can download files in this forum