Хит-Манки / Marvel's Hit-Monkey (2021) WEBRip [H.264/720p-LQ] (сезон 1, серии 1-10 из 10) NewStation скачать торрент

Reply to topic


DL-List and Torrent activity [Update пиров]
Size:  2.67 GB   |    Registered:  22 days   |    Completed:  0 times
Seeders:  12  [  718 KB/s  ]   Leechers:  6  [  15 MB/s  ]   Show peers in full details
 
 
 
 
Author Message

Pro100Moder ®

Longevity: 7 years 9 months

Posts: 2470

Location: Earth


Post 28-Nov-2021 02:36

[Quote]

Хит-Манки / Marvel's Hit-Monkey«Revenge goes primal»- Производство: США, Floyd County Productions, Hulu, Marvel Animation, Marvel Entertainment, Marvel Television
Жанр: Мультсериал, фантастика, фэнтези, боевик, комедия, приключения
Режиссер: Джош Гордон, Уилл Спек
Актеры: Джейсон Судейкис, Оливия Манн, Элли Маки, Фред Таташиор, Джордж Такей, Ноби Наканиси
Описание:
Сюжет посвящен обезьяне, которая тренировалась у киллера по имени Брюс, чтобы линчевать преступников.

Релиз от: NewStation
Продолжительность: ~00:27:00 серия
Качество видео: WEBRip
Перевод: Многоголосый профессиональный (NewStation) присутствует ненормативная лексика!
Субтитры: английские, испанские
Видео: AVC/H.264, 1280x720, ~1066 Kbps
Аудио #1: EAC-3, 6 ch, 256 kbps, - Русский (NewStation)
Аудио #2: EAC-3, 6 ch, 256 kbps, - Английский

Список серий:

01 Pilot
02 Bright Lights, Big City

MediaInfo:

Общее
Уникальный идентификатор : 153905234290129283764092962663285409477 (0x73C911E70BBA616021E386B6D4D046C5)
Полное имя : Marvels.Hit-Monkey.S01E01.WEBRip.720p.NewStation.mkv
Формат : Matroska
Версия формата : Version 4
Размер файла : 315 Мбайт
Продолжительность : 27 м. 52 с.
Общий поток : 1 580 Кбит/сек
Дата кодирования : UTC 2021-11-23 05:46:26
Программа кодирования : mkvmerge v40.0.0 ('Old Town Road + Pony') 64-bit
Библиотека кодирования : libebml v1.3.9 + libmatroska v1.5.2
Видео
Идентификатор : 6
Формат : AVC
Формат/Информация : Advanced Video Codec
Профиль формата : [email protected]
Настройки формата : CABAC / 5 Ref Frames
Параметр CABAC формата : Да
Параметр RefFrames формата : 5 кадров
Идентификатор кодека : V_MPEG4/ISO/AVC
Продолжительность : 27 м. 52 с.
Битрейт : 1 066 Кбит/сек
Ширина : 1 280 пикселей
Высота : 720 пикселей
Соотношение сторон : 16:9
Режим частоты кадров : Постоянный
Частота кадров : 24,000 кадра/сек
Цветовое пространство : YUV
Субдискретизация насыщенности : 4:2:0
Битовая глубина : 8 бит
Тип развёртки : Прогрессивная
Бит/(Пиксели*Кадры) : 0.048
Размер потока : 213 Мбайт (67%)
Default : Да
Forced : Нет
Аудио #1
Идентификатор : 1
Формат : E-AC-3
Формат/Информация : Enhanced AC-3
Коммерческое название : Dolby Digital Plus
Идентификатор кодека : A_EAC3
Продолжительность : 27 м. 52 с.
Вид битрейта : Постоянный
Битрейт : 256 Кбит/сек
Каналы : 6 каналов
Channel layout : L R C LFE Ls Rs
Частота : 48,0 КГц
Частота кадров : 31,250 кадров/сек (1536 SPF)
Метод сжатия : С потерями
Размер потока : 51,1 Мбайт (16%)
Заголовок : NewStation
Язык : Russian
Service kind : Complete Main
Default : Да
Forced : Нет
Аудио #2
Идентификатор : 2
Формат : E-AC-3
Формат/Информация : Enhanced AC-3
Коммерческое название : Dolby Digital Plus
Идентификатор кодека : A_EAC3
Продолжительность : 27 м. 52 с.
Вид битрейта : Постоянный
Битрейт : 256 Кбит/сек
Каналы : 6 каналов
Channel layout : L R C LFE Ls Rs
Частота : 48,0 КГц
Частота кадров : 31,250 кадров/сек (1536 SPF)
Метод сжатия : С потерями
Размер потока : 51,1 Мбайт (16%)
Язык : English
Service kind : Complete Main
Default : Нет
Forced : Нет
Текст #1
Идентификатор : 3
Формат : UTF-8
Идентификатор кодека : S_TEXT/UTF8
Идентификатор кодека/Информация : UTF-8 Plain Text
Продолжительность : 26 м. 31 с.
Битрейт : 47 бит/сек
Count of elements : 279
Размер потока : 9,23 Кбайт (0%)
Язык : English
Default : Нет
Forced : Нет
Текст #2
Идентификатор : 4
Формат : UTF-8
Идентификатор кодека : S_TEXT/UTF8
Идентификатор кодека/Информация : UTF-8 Plain Text
Продолжительность : 26 м. 58 с.
Битрейт : 61 бит/сек
Count of elements : 461
Размер потока : 12,2 Кбайт (0%)
Заголовок : SDH
Язык : English
Default : Нет
Forced : Нет
Текст #3
Идентификатор : 5
Формат : UTF-8
Идентификатор кодека : S_TEXT/UTF8
Идентификатор кодека/Информация : UTF-8 Plain Text
Продолжительность : 26 м. 59 с.
Битрейт : 65 бит/сек
Count of elements : 515
Размер потока : 12,9 Кбайт (0%)
Заголовок : SDH
Язык : Spanish
Default : Нет
Forced : Нет
-Скриншоты:


Смотреть онлайн

[trackeroc.org].33872.torrent  Магнет ссылка
Torrent: Registered   [ 2021-12-31 14:48 ]

Скачать торрент

15 KB

Status: checked
Completed: 112 times
Size: 2.67 GB
 

trackeroc.club (28-ноя-21), trackeroc.info (29-ноя-21)

Similar torrent
Forum Topic Author Size
Зарубежные сериалы Студии Marvel: Создание / Marvel Studios: Assembled [сезон 1 серии 1-1 из 4] (2021) WEBRip trackeroc.info 665 MB
Playstation 4 (PS4) - Игры [PS4] [PS4 Exclusive] Marvel’s Spider-Man GOTY [EUR/RUS] [PAL/NTSC] [ENG+RUS] [1.17] trackeroc.org 69.49 GB
Action Marvel's Guardians of the Galaxy: The Telltale Series Episode 1-5 (1.0.16140) (2017) [RUS] [ENG][MULTi9] GOG max+100600 17.8 GB
Приключенческие игры, Adventure Marvel's Guardians of the Galaxy: The Telltale Series [Episode 1-5] (2017) [Ru/Multi] RePack от FitGirl McAule 6.05 GB
[Profile] [PM]
Display posts from previous:    
Reply to topic

The time now is: Today 04:22

All times are GMT + 4 Hours



You cannot post new topics in this forum
You cannot reply to topics in this forum
You cannot edit your posts in this forum
You cannot delete your posts in this forum
You cannot vote in polls in this forum
You cannot attach files in this forum
You can download files in this forum