Фантастические твари: Тайны Дамблдора / Fantastic Beasts: The Secrets of Dumbledore (2022) BDRip-AVC | Red Head Sound скачать торрент

Reply to topic


DL-List and Torrent activity [Update пиров]
Size:  1.84 GB   |    Registered:  1 month 17 days   |    Completed:  1 time
Seeders:  31  [  86 KB/s  ]   Show peers in full details
 
 
 
 
Author Message

.:Rtuty:. ®

Longevity: 2 months 18 days

Posts: 33

Location: Москва


Post 23-Jun-2022 19:16

[Quote]

Фантастические твари: Тайны Дамблдора / Fantastic Beasts: The Secrets of Dumbledore-- Информация о фильме--Год выпуска: 2022--Страна: Великобритания, США--Студия: Heyday Films, Warner Bros--Жанр: фэнтези, боевик, приключения--Перевод: Любительский (дублированный) | Red Head Sound--Продолжительность: 02:22:39--Субтитры: Русские | Forced | NewComers--Режиссер: Дэвид Йейтс --В ролях: Эдди Редмэйн, Джуд Лоу, Эзра Миллер, Дэн Фоглер, Элисон Судол, Каллум Тернер, Джессика Уильямс, Кэтрин Уотерстон, Мадс Миккельсен, Оливер Мазуччи --О фильме: Профессор Альбус Дамблдор узнаёт, что могущественный тёмный волшебник Геллерт Грин-де-Вальд планирует захватить власть над миром. Понимая, что не сможет остановить его в одиночку, Дамблдор просит магозоолога Ньюта Саламандера возглавить команду выдающихся волшебников и одного отважного магла-пекаря. Им предстоят невероятно опасные приключения, встреча со старыми и укрощение новых магических существ и борьба со сторонниками Грин-де-Вальда, которых становится всё больше.--Качество: BDRip-AVC--Формат: MKV--Видео: MPEG-4 AVC, 1024x426 (2,40:1), 23,976 fps, 1399 Kbit/s (0.134 bit/pixel)--Аудио: русский, AC3, 5.1, 48 kHz, 448 kbps | Red Head Sound--Навигация по главам: есть--

MediaInfo

Код:
Общее
Уникальный идентификатор : 206850026664170041204498695049581594083 (0x9B9DDDB477F6484E9025480096DE85E3)
Полное имя : G:GFFantastic.Beasts.The.Secrets.of.Dumbledore.2022.BDRip.AVC.Rip.by.HardwareMining.R.G.Generalfilm.mkv
Формат : Matroska
Версия формата : Version 4
Размер файла : 1,84 Гбайт
Продолжительность : 2 ч. 22 м.
Общий поток : 1 850 Кбит/сек
Название фильма : Fantastic.Beasts.The.Secrets.of.Dumbledore.2022.BDRip.AVC.Rip.by.HardwareMining.R.G.Generalfilm
Дата кодирования : UTC 2022-06-21 11:10:56
Программа кодирования : mkvmerge v6.8.0 ('Theme for Great Cities') 64bit built on Mar 2 2014 21:34:26
Библиотека кодирования : libebml v1.3.0 + libmatroska v1.4.1
Обложка : Yes
Attachments : cover.png
Видео
Идентификатор : 1
Формат : AVC
Формат/Информация : Advanced Video Codec
Профиль формата : [email protected]
Настройки формата : CABAC / 9 Ref Frames
Параметр CABAC формата : Да
Параметр RefFrames формата : 9 кадров
Идентификатор кодека : V_MPEG4/ISO/AVC
Продолжительность : 2 ч. 22 м.
Битрейт : 1 399 Кбит/сек
Ширина : 1 024 пикселя
Высота : 426 пикселей
Соотношение сторон : 2,40:1
Режим частоты кадров : Постоянный
Частота кадров : 23,976 (24000/1001) кадра/сек
Цветовое пространство : YUV
Субдискретизация насыщенности : 4:2:0
Битовая глубина : 8 бит
Тип развёртки : Прогрессивная
Бит/(Пиксели*Кадры) : 0.134
Размер потока : 1,36 Гбайт (74%)
Библиотека кодирования : x264 core 148 r2638 7599210
Настройки программы : cabac=1 / ref=9 / deblock=1:-2:-1 / analyse=0x3:0x113 / me=umh / subme=10 / psy=1 / psy_rd=0.00:0.15 / mixed_ref=1 / me_range=32 / chroma_me=1 / trellis=2 / 8x8dct=1 / cqm=0 / deadzone=21,11 / fast_pskip=0 / chroma_qp_offset=-3 / threads=6 / lookahead_threads=1 / sliced_threads=0 / nr=0 / decimate=0 / interlaced=0 / bluray_compat=0 / constrained_intra=0 / bframes=10 / b_pyramid=2 / b_adapt=2 / b_bias=0 / direct=1 / weightb=1 / open_gop=0 / weightp=2 / keyint=240 / keyint_min=23 / scenecut=40 / intra_refresh=0 / rc_lookahead=40 / rc=2pass / mbtree=0 / bitrate=1399 / ratetol=1.0 / qcomp=0.65 / qpmin=0 / qpmax=69 / qpstep=4 / cplxblur=20.0 / qblur=0.5 / vbv_maxrate=50000 / vbv_bufsize=65500 / nal_hrd=none / filler=0 / ip_ratio=1.40 / pb_ratio=1.30 / aq=1:2.00
Язык : English
Default : Да
Forced : Нет
Аудио
Идентификатор : 2
Формат : AC-3
Формат/Информация : Audio Coding 3
Коммерческое название : Dolby Digital
Идентификатор кодека : A_AC3
Продолжительность : 2 ч. 22 м.
Вид битрейта : Постоянный
Битрейт : 448 Кбит/сек
Каналы : 6 каналов
Channel layout : L R C LFE Ls Rs
Частота : 48,0 КГц
Частота кадров : 31,250 кадров/сек (1536 SPF)
Метод сжатия : С потерями
Размер потока : 457 Мбайт (24%)
Заголовок : Dub | Red Head Sound
Язык : Russian
Service kind : Complete Main
Default : Да
Forced : Да
Текст
Идентификатор : 3
Формат : UTF-8
Идентификатор кодека : S_TEXT/UTF8
Идентификатор кодека/Информация : UTF-8 Plain Text
Заголовок : Forced [NewComers]
Язык : Russian
Default : Нет
Forced : Нет
Меню
00:00:00.000 : en:Chapter 01
00:10:32.799 : en:Chapter 02
00:21:47.932 : en:Chapter 03
00:28:14.568 : en:Chapter 04
00:37:49.601 : en:Chapter 05
00:47:41.567 : en:Chapter 06
01:00:03.475 : en:Chapter 07
01:10:51.831 : en:Chapter 08
01:18:50.976 : en:Chapter 09
01:30:10.655 : en:Chapter 10
01:39:50.568 : en:Chapter 11
01:49:31.064 : en:Chapter 12
01:56:51.171 : en:Chapter 13
02:07:17.964 : en:Chapter 14
02:13:17.615 : en:Chapter 15

Скриншоты



Смотреть онлайн

[trackeroc.org].34793.torrent  Магнет ссылка
Torrent: Registered   [ 2022-06-23 19:16 ]

Скачать торрент

19 KB

Status: checked
Completed: 71 times
Size: 1.84 GB
 

trackeroc.info (24-июн-22)

Similar torrent
Forum Topic Author Size
Квесты, я ищу, Поиск предметов, Hidden Object Paranormal Files 8: Price of a Secret / Паранормальные явления 8: Цена тайны [RUS] (2022) trackeroc.info 1.15 GB
Квесты, я ищу, Поиск предметов, Hidden Object Edge of Reality 8: Lost Secrets of the Forest / Край реальности : Утерянные тайны леса [RUS / ENG] (2022) trackeroc.info 1.02 GB
Отечественные Мультсериалы Тайны Медовой долины (2020-2021) (сезон 1, серии 1-52 из 52) trackeroc.info 12.42 GB
Квесты, я ищу, Поиск предметов, Hidden Object Mysteries of Neverville. Runestone of Light / Тайны Невервилля. Рунный камень света [RUS / ENG] (2014) trackeroc.info 411 MB

_________________
[Profile] [PM]
Display posts from previous:    
Reply to topic

The time now is: Today 14:46

All times are GMT + 4 Hours



You cannot post new topics in this forum
You cannot reply to topics in this forum
You cannot edit your posts in this forum
You cannot delete your posts in this forum
You cannot vote in polls in this forum
You cannot attach files in this forum
You can download files in this forum