Дракула Брэма Стокера / Bram Stoker's Dracula (1992) BDRip [H.264] [Remastered] скачать торрент

Reply to topic


DL-List and Torrent activity [Update пиров]
Size:  3.27 GB   |    Registered:  1 month 5 days   |    Completed:  0 times
Seeders:  7  [  868 KB/s  ]   Leechers:  1  [  2 MB/s  ]   Show peers in full details
 
 
 
 
Author Message

Pro100Moder ®

Longevity: 7 years 1 month

Posts: 2543

Location: Earth


Post 14-Nov-2015 21:29

[Quote]

Дракула Брэма Стокера / Bram Stoker's Dracula
«Любовь бессмертна»
- Производство: США / American Zoetrope, Columbia Pictures, Osiris Films
Жанр: Ужасы, Фэнтези, Мелодрама
Режиссер: Френсис Форд Коппола
Актеры: Гари Олдман, Вайнона Райдер, Энтони Хопкинс, Киану Ривз, Ричард Э. Грант, Кэри Элвес, Билл Кэмпбелл, Сэди Фрост, Том Уэйтс, Моника Беллуччи
Описание:
Конец XIX века, Лондон. Молодой юрист Джонатан Харкер и красавица девушка Мина любят друг друга. Джонатан на время вынужден оставить невесту одну и отправиться по делам в Трансильванию к графу Дракуле, желающему приобрести недвижимость в столице Англии. Но Джонатан не знает, кто такой Дракула на самом деле...

Возраст: 16+ (зрителям, достигшим 16 лет)
Рейтинг MPAA: R (лицам до 17 лет обязательно присутствие взрослого)
Продолжительность: 02:07:21
Качество видео: BDRip
Перевод: Дублированный, Одноголосый
Субтитры: Русские (forced, full), Английские (full)
Видео: AVC/H.264, 1024x554, ~2400 Kbps
Аудио 1: AAC, 2 ch, 192 kbps | Русский VO (VHSник) - 2020 г.
Аудио 2: AC3, 4 ch, 448 kbps | Русский DUB (FilmLinesInt BD) - 1999 г.
Аудио 3: AC3, 2 ch, 192 kbps | Русский DUB (Невафильм) - 1994 г.
Аудио 4: AC3, 6 ch, 448 kbps | Английский

MediaInfo:

General
Unique ID : 302677972283521813418146100812818097720 (0xE3B5A8334BEFE808DE4DCB53BDD32638)
Complete name : D:\Дракула Брэма Стокера 1992 (VO+2xDUB+Eng).mkv
Format : Matroska
Format version : Version 4
File size : 3.27 GiB
Duration : 2 h 7 min
Overall bit rate : 3 680 kb/s
Movie name : Дракула Брэма Стокера / Bram Stoker's Dracula (1992)
Encoded date : UTC 2021-04-10 14:00:49
Writing application : mkvmerge v29.0.0 ('Like It Or Not') 64-bit
Writing library : libebml v1.3.6 + libmatroska v1.4.9
Cover : Yes
Attachments : VietHD.nfo / cover.jpg
Video
ID : 1
Format : AVC
Format/Info : Advanced Video Codec
Format profile : [email protected]
Format settings : CABAC / 10 Ref Frames
Format settings, CABAC : Yes
Format settings, ReFrames : 10 frames
Codec ID : V_MPEG4/ISO/AVC
Duration : 2 h 7 min
Bit rate : 2 400 kb/s
Width : 1 024 pixels
Height : 554 pixels
Display aspect ratio : 1.85:1
Frame rate mode : Constant
Frame rate : 23.976 (24000/1001) FPS
Color space : YUV
Chroma subsampling : 4:2:0
Bit depth : 8 bits
Scan type : Progressive
Bits/(Pixel*Frame) : 0.176
Stream size : 2.13 GiB (65%)
Title : Дракула (1992)
Writing library : x264 core 146 r2538 121396c
Encoding settings : cabac=1 / ref=10 / deblock=1:-3:-3 / analyse=0x3:0x133 / me=umh / subme=10 / psy=1 / psy_rd=1.00:0.10 / mixed_ref=1 / me_range=48 / chroma_me=1 / trellis=2 / 8x8dct=1 / cqm=0 / deadzone=21,11 / fast_pskip=0 / chroma_qp_offset=-3 / threads=6 / lookahead_threads=1 / sliced_threads=0 / nr=0 / decimate=1 / interlaced=0 / bluray_compat=0 / constrained_intra=0 / bframes=5 / b_pyramid=2 / b_adapt=2 / b_bias=0 / direct=3 / weightb=1 / open_gop=0 / weightp=2 / keyint=230 / keyint_min=22 / scenecut=40 / intra_refresh=0 / rc_lookahead=40 / rc=2pass / mbtree=1 / bitrate=2400 / ratetol=1.0 / qcomp=0.60 / qpmin=10 / qpmax=51 / qpstep=4 / cplxblur=20.0 / qblur=0.5 / ip_ratio=1.40 / aq=1:1.00
Language : English
Default : Yes
Forced : No
Audio #1
ID : 2
Format : AAC LC
Format/Info : Advanced Audio Codec Low Complexity
Codec ID : A_AAC-2
Duration : 2 h 7 min
Bit rate : 192 kb/s
Channel(s) : 2 channels
Channel layout : L R
Sampling rate : 48.0 kHz
Frame rate : 46.875 FPS (1024 SPF)
Compression mode : Lossy
Stream size : 173 MiB (5%)
Title : VO (VHSник)
Language : Russian
Default : Yes
Forced : Yes
Audio #2
ID : 3
Format : AC-3
Format/Info : Audio Coding 3
Commercial name : Dolby Digital
Codec ID : A_AC3
Duration : 2 h 7 min
Bit rate mode : Constant
Bit rate : 448 kb/s
Channel(s) : 4 channels
Channel layout : L R C Cb
Sampling rate : 48.0 kHz
Frame rate : 31.250 FPS (1536 SPF)
Bit depth : 16 bits
Compression mode : Lossy
Stream size : 408 MiB (12%)
Title : DUB (Blu-ray CEE)
Language : Russian
Service kind : Complete Main
Default : No
Forced : No
Audio #3
ID : 4
Format : AC-3
Format/Info : Audio Coding 3
Commercial name : Dolby Digital
Codec ID : A_AC3
Duration : 2 h 7 min
Bit rate mode : Constant
Bit rate : 192 kb/s
Channel(s) : 2 channels
Channel layout : L R
Sampling rate : 48.0 kHz
Frame rate : 31.250 FPS (1536 SPF)
Bit depth : 16 bits
Compression mode : Lossy
Stream size : 175 MiB (5%)
Title : DUB (Невафильм)
Language : Russian
Service kind : Complete Main
Default : No
Forced : No
Audio #4
ID : 5
Format : AC-3
Format/Info : Audio Coding 3
Commercial name : Dolby Digital
Codec ID : A_AC3
Duration : 2 h 7 min
Bit rate mode : Constant
Bit rate : 448 kb/s
Channel(s) : 6 channels
Channel layout : L R C LFE Ls Rs
Sampling rate : 48.0 kHz
Frame rate : 31.250 FPS (1536 SPF)
Bit depth : 16 bits
Compression mode : Lossy
Stream size : 408 MiB (12%)
Title : Оригинал
Language : English
Service kind : Complete Main
Default : No
Forced : No
Text #1
ID : 6
Format : UTF-8
Codec ID : S_TEXT/UTF8
Codec ID/Info : UTF-8 Plain Text
Duration : 1 h 10 min
Bit rate : 1 b/s
Count of elements : 19
Stream size : 908 Bytes (0%)
Title : Русские (форсированные)
Language : Russian
Default : Yes
Forced : Yes
Text #2
ID : 7
Format : UTF-8
Codec ID : S_TEXT/UTF8
Codec ID/Info : UTF-8 Plain Text
Duration : 1 h 58 min
Bit rate : 55 b/s
Count of elements : 740
Stream size : 48.5 KiB (0%)
Title : Русские (полные)
Language : Russian
Default : No
Forced : No
Text #3
ID : 8
Format : UTF-8
Codec ID : S_TEXT/UTF8
Codec ID/Info : UTF-8 Plain Text
Duration : 1 h 58 min
Bit rate : 39 b/s
Count of elements : 1106
Stream size : 34.1 KiB (0%)
Title : Английские (полные)
Language : English
Default : No
Forced : No
Menu
00:00:00.000 : en:Start
00:05:45.178 : en:London, 1897
00:12:28.373 : en:"Welcome To My Home"
00:23:15.185 : en:Dracula's Wives
00:35:33.214 : en:Letters Of Doom
00:37:45.263 : en:Lucy In Love
00:43:38.241 : en:The Demeter
00:48:04.757 : en:Lucy's Garden Party
00:54:35.856 : en:Dracula In London
01:08:08.876 : en:Examining Lucy
01:12:22.797 : en:Professor Van Helsing
01:17:45.369 : en:Devils In The Pit
01:23:17.993 : en:Night Caller
01:35:31.392 : en:Harker's Escape
01:48:19.868 : en:A Violent Reaction
01:55:28.630 : en:Vampyre
-Скриншоты:


Смотреть онлайн

[trackeroc.org].9774.torrent  Магнет ссылка
Torrent: Registered   [ 2021-04-13 07:05 ]

Скачать торрент

17 KB

Status: checked
Completed: 152 times
Size: 3.27 GB
 

trackeroc.info (14-ноя-15), Angel (16-ноя-15), araza (11-фев-21)

Similar torrent
Forum Topic Author Size
Аудио Книги Брэм Стокер | Дракула (2013) [MP3] Pro100Moder 693 MB
Сasual games, Тайм менеджмент Incredible Dracula 8: Oceans Call / Невероятный Дракула 8. Зов океана (2020) RUS trackeroc.info 348 MB
Зарубежные сериалы Дракула / Dracula (2020) WEBRip [H.264/1080p-LQ] (сезон 1, серии 1-3 из 3) HDRezka Studio [AD] Pro100Moder 13.1 GB
Сasual games, Тайм менеджмент Невероятный Дракула 7: Проклятие ведьм / Incredible Dracula 7 Witches Curse (2019) RUS trackeroc.info 348 MB

_________________
[Profile] [PM]
Display posts from previous:    
Reply to topic

The time now is: Today 04:18

All times are GMT + 4 Hours



You cannot post new topics in this forum
You cannot reply to topics in this forum
You cannot edit your posts in this forum
You cannot delete your posts in this forum
You cannot vote in polls in this forum
You cannot attach files in this forum
You can download files in this forum