DOTA: Кровь дракона / Dota: Dragon's Blood (2021) WEB-DL [H.264/1080p-LQ] (сезон 1, серии 1-8 из 8) скачать торрент

Reply to topic


DL-List and Torrent activity [Update пиров]
Size:  6.65 GB   |    Registered:  18 days   |    Completed:  0 times
Seeders:  20  [  559 KB/s  ]   Leechers:  4  [  3 MB/s  ]   Show peers in full details
 
 
 
 
Author Message

Pro100Moder ®

Longevity: 6 years 11 months

Posts: 2534

Location: Earth


Post 25-Mar-2021 16:08

[Quote]

DOTA: Кровь дракона / Dota: Dragon's Blood - Производство: США / Netflix Animation, Valve
Жанр: Минисериал, Для взрослых
Описание:
Прославленный драконий рыцарь Дэвион посвятил жизнь борьбе с бедами мира. После встречи с могущественным древним эльдвурмом и с благородной принцессой Мираной, у которой есть своя тайная миссия, Дэвион оказывается в эпицентре событий куда более масштабных, чем он мог себе представить.

Возраст: 18+ (зрителям, достигшим 18 лет. запрещено для детей)
Дата мировой премьеры: 25 марта 2021
Дата российской премьеры: 25 марта 2021, «Netflix»
Релиз от: EniaHD
Продолжительность: ~00:25:00 серия
Качество видео: WEB-DL 1080р
Перевод: Дублированный (Невафильм)
Язык озвучки Русский, английский
Субтитры: Русские (Forced, Full), английские (Forced, SDH), немецкие, испанские, французкие, итальянские, португальские
Видео: AVC/H.264, 1920х1080, ~5110 Kbps
Аудио 1: E-AC3, 6 ch, 640 Kbps, русский
Аудио 2: E-AC3, 6 ch, 640 Kbps, английский

Список серий:

01. Что сказал гром — What the Thunder Said
02. Бывшая принцесса — Princess of Nothing
03. Нигде и никогда — Neverwhere Land
04. Монстр в конце этой книги — The Monster at the End of This Book
05. Огненная проповедь — The Fire Sermon
06. Рыцарь, смерть и дьявол — Knight, Death and the Devil
07. Говори — Speak the Words
08. Шахматная партия — A Game of Chess

MediaInfo:

Общее
Уникальный идентификатор : 223505045802333429322967073449230771568 (0xA825818C0CAAAC430316067CC004A570)
Полное имя : Dota.Dragons.Blood.S01E01.1080p.NF.WEB-DL.DDP5.1.x264-EniaHD.mkv
Формат : Matroska
Версия формата : Version 4
Размер файла : 1,20 Гбайт
Продолжительность : 27 м. 44 с.
Режим общего битрейта : Переменный
Общий поток : 6 183 Кбит/сек
Название фильма : Dota: Dragon's Blood S01E01 - EniaHD
Дата кодирования : UTC 2021-03-25 07:08:17
Программа кодирования : mkvmerge v55.0.0 ('Waiting For Space') 64-bit
Библиотека кодирования : libebml v1.4.2 + libmatroska v1.6.4
Видео
Идентификатор : 1
Формат : AVC
Формат/Информация : Advanced Video Codec
Профиль формата : [email protected]
Настройки формата : CABAC / 3 Ref Frames
Параметр CABAC формата : Да
Параметр RefFrames формата : 3 кадра
Идентификатор кодека : V_MPEG4/ISO/AVC
Продолжительность : 27 м. 44 с.
Вид битрейта : Переменный
Битрейт : 5 110 Кбит/сек
Максимальный битрейт : 7 665 Кбит/сек
Ширина : 1 920 пикселей
Высота : 1 080 пикселей
Соотношение сторон : 16:9
Режим частоты кадров : Постоянный
Частота кадров : 24,000 кадра/сек
Цветовое пространство : YUV
Субдискретизация насыщенности : 4:2:0
Битовая глубина : 8 бит
Тип развёртки : Прогрессивная
Бит/(Пиксели*Кадры) : 0.103
Размер потока : 972 Мбайт (79%)
Библиотека кодирования : x264 core 148 r2722 1b0121b
Настройки программы : cabac=1 / ref=3 / deblock=1:0:0 / analyse=0x1:0x111 / me=umh / subme=10 / psy=1 / psy_rd=1.00:0.00 / mixed_ref=1 / me_range=24 / chroma_me=1 / trellis=2 / 8x8dct=0 / cqm=0 / deadzone=21,11 / fast_pskip=1 / chroma_qp_offset=-2 / threads=8 / lookahead_threads=1 / sliced_threads=0 / nr=0 / decimate=1 / interlaced=0 / bluray_compat=0 / stitchable=1 / constrained_intra=0 / bframes=2 / b_pyramid=0 / b_adapt=2 / b_bias=0 / direct=3 / weightb=1 / open_gop=0 / weightp=2 / keyint=250 / keyint_min=24 / scenecut=0 / intra_refresh=0 / rc_lookahead=48 / rc=2pass / mbtree=1 / bitrate=5110 / ratetol=1.0 / qcomp=0.50 / qpmin=6 / qpmax=51 / qpstep=4 / cplxblur=20.0 / qblur=0.5 / vbv_maxrate=7665 / vbv_bufsize=10220 / nal_hrd=vbr / filler=0 / ip_ratio=1.40 / aq=1:1.00
Default : Да
Forced : Нет
Аудио #1
Идентификатор : 2
Формат : E-AC-3
Формат/Информация : Enhanced AC-3
Коммерческое название : Dolby Digital Plus
Идентификатор кодека : A_EAC3
Продолжительность : 27 м. 44 с.
Вид битрейта : Постоянный
Битрейт : 640 Кбит/сек
Каналы : 6 каналов
Channel layout : L R C LFE Ls Rs
Частота : 48,0 КГц
Частота кадров : 31,250 кадров/сек (1536 SPF)
Метод сжатия : С потерями
Размер потока : 127 Мбайт (10%)
Язык : Russian
Service kind : Complete Main
Default : Да
Forced : Нет
Аудио #2
Идентификатор : 3
Формат : E-AC-3
Формат/Информация : Enhanced AC-3
Коммерческое название : Dolby Digital Plus
Идентификатор кодека : A_EAC3
Продолжительность : 27 м. 44 с.
Вид битрейта : Постоянный
Битрейт : 640 Кбит/сек
Каналы : 6 каналов
Channel layout : L R C LFE Ls Rs
Частота : 48,0 КГц
Частота кадров : 31,250 кадров/сек (1536 SPF)
Метод сжатия : С потерями
Размер потока : 127 Мбайт (10%)
Язык : English
Service kind : Complete Main
Default : Нет
Forced : Нет
Текст #1
Идентификатор : 4
Формат : UTF-8
Идентификатор кодека : S_TEXT/UTF8
Идентификатор кодека/Информация : UTF-8 Plain Text
Продолжительность : 26 м. 19 с.
Битрейт : 0 бит/сек
Count of elements : 3
Размер потока : 180 байт (0%)
Заголовок : Forced
Язык : Russian
Default : Да
Forced : Нет
Текст #2
Идентификатор : 5
Формат : UTF-8
Идентификатор кодека : S_TEXT/UTF8
Идентификатор кодека/Информация : UTF-8 Plain Text
Продолжительность : 26 м. 19 с.
Битрейт : 81 бит/сек
Count of elements : 272
Размер потока : 15,8 Кбайт (0%)
Язык : Russian
Default : Нет
Forced : Нет
Текст #3
Идентификатор : 6
Формат : UTF-8
Идентификатор кодека : S_TEXT/UTF8
Идентификатор кодека/Информация : UTF-8 Plain Text
Продолжительность : 25 м. 32 с.
Битрейт : 59 бит/сек
Count of elements : 410
Размер потока : 11,1 Кбайт (0%)
Заголовок : SDH
Язык : English
Default : Нет
Forced : Нет
Текст #4
Идентификатор : 7
Формат : UTF-8
Идентификатор кодека : S_TEXT/UTF8
Идентификатор кодека/Информация : UTF-8 Plain Text
Продолжительность : 26 м. 18 с.
Битрейт : 56 бит/сек
Count of elements : 272
Размер потока : 10,8 Кбайт (0%)
Язык : German
Default : Нет
Forced : Нет
Текст #5
Идентификатор : 8
Формат : UTF-8
Идентификатор кодека : S_TEXT/UTF8
Идентификатор кодека/Информация : UTF-8 Plain Text
Продолжительность : 26 м. 18 с.
Битрейт : 51 бит/сек
Count of elements : 272
Размер потока : 9,96 Кбайт (0%)
Язык : Spanish
Default : Нет
Forced : Нет
Текст #6
Идентификатор : 9
Формат : UTF-8
Идентификатор кодека : S_TEXT/UTF8
Идентификатор кодека/Информация : UTF-8 Plain Text
Продолжительность : 26 м. 18 с.
Битрейт : 54 бит/сек
Count of elements : 275
Размер потока : 10,4 Кбайт (0%)
Язык : French
Default : Нет
Forced : Нет
Текст #7
Идентификатор : 10
Формат : UTF-8
Идентификатор кодека : S_TEXT/UTF8
Идентификатор кодека/Информация : UTF-8 Plain Text
Продолжительность : 26 м. 18 с.
Битрейт : 51 бит/сек
Count of elements : 272
Размер потока : 10,00 Кбайт (0%)
Язык : Italian
Default : Нет
Forced : Нет
Текст #8
Идентификатор : 11
Формат : UTF-8
Идентификатор кодека : S_TEXT/UTF8
Идентификатор кодека/Информация : UTF-8 Plain Text
Продолжительность : 26 м. 18 с.
Битрейт : 53 бит/сек
Count of elements : 272
Размер потока : 10,3 Кбайт (0%)
Заголовок : Brazilian
Язык : Portuguese
Default : Нет
Forced : Нет
-Скриншоты:


Смотреть онлайн

[trackeroc.org].32733.torrent  Магнет ссылка
Torrent: Registered   [ 2021-03-25 16:08 ]

Скачать торрент

135 KB

Status: checked
Completed: 141 times
Size: 6.65 GB
 

www.trackeroc.ru (25-мар-21)

Similar torrent
Forum Topic Author Size
Боевики Выход жирного дракона / Enter the Fat Dragon / Fei lung gwoh gong (2020) BDRip www.trackeroc.ru 2.03 GB
Пасьянсы, карточные игры Dreamland Solitaire 2 – Dragon's Fury / Страна фей 2 Ярость дракона [RUS] (2019) www.trackeroc.ru 124 MB
Пасьянсы, карточные игры Пасьянс: Светило дракона / Solitaire. Dragon Light (2019) (RUS) www.trackeroc.ru 113 MB
Сasual games, Тайм менеджмент Farm Tribe: Dragon Island / Фермеры 3: Остров дракона (2019) (RUS) www.trackeroc.ru 120 MB

_________________
[Profile] [PM]
Display posts from previous:    
Reply to topic

The time now is: Today 17:33

All times are GMT + 4 Hours



You cannot post new topics in this forum
You cannot reply to topics in this forum
You cannot edit your posts in this forum
You cannot delete your posts in this forum
You cannot vote in polls in this forum
You cannot attach files in this forum
You can download files in this forum