Детские игры / Child's Play (2019) WEB-DLRip скачать торрент

Reply to topic

DL-List and Torrent activity [Update пиров]
Size:  1.44 GB   |    Registered:  8 months 16 days   |    Completed:  0 times

Seeder not seen: Never

 
 
 
 
 
Author Message

Captain ®

Longevity: 6 years 1 month

Posts: 2461

Location: Earth


Post 12-Sep-2019 03:30

[Quote]

Детские игры / Child's Play
«Твой лучший друг... до самой смерти»
- Производство: Франция, Канада, США / Orion Pictures, BRON Studios, Bron Creative
Жанр: Ужасы
Режиссер: Ларс Клевберг
Актеры: Обри Плаза, Марк Хэмилл, Гэбриел Бейтман, Брайан Тайри Генри, Тим Мэтисон, Дэвид Льюис, Беатрис Китсос, Ханна Дрю, Трент Редекоп, Эмбер Тейлор
Описание:
Мать-одиночка Карен дарит своему сыну Энди куклу, о которой мечтают все дети. Однако, вскоре становится ясно, что Энди достается больше, чем просто игрушка…

Возраст: 18+ (зрителям, достигшим 18 лет. запрещено для детей)
Рейтинг MPAA: R (лицам до 17 лет обязательно присутствие взрослого)
Дата мировой премьеры: 18 июня 2019
Дата премьеры в России: 20 июня 2019

Продолжительность: 01:26:16
Качество видео: WEB-DLRip
Перевод: Дублированный (iTunes)
Субтитры: Отсутствуют
Видео: XviD, 720x304, ~1988 Kbps
Аудио: AC-3, 6 ch, 384 Kbps

MediaInfo:

Общее
Полное имя : Childs.Play.2019.WEB-DLRip.avi
Формат : AVI
Формат/Информация : Audio Video Interleave
Размер файла : 1,44 Гбайт
Продолжительность : 1 ч. 26 м.
Общий поток : 2382 Кбит/сек
Программа кодирования : VirtualDubMod 1.5.10.2 (build 2540/release)
Библиотека кодирования : VirtualDubMod build 2540/release
Видео
Идентификатор : 0
Формат : MPEG-4 Visual
Профиль формата : Advanced [email protected]
Настройки формата : BVOP2
Параметр BVOP формата : 2
Параметр QPel формата : Нет
Параметр GMC формата : Без точки перехода
Параметр матрицы формата : Default (MPEG)
Идентификатор кодека : XVID
Идентификатор кодека/Подсказка : XviD
Продолжительность : 1 ч. 26 м.
Битрейт : 1988 Кбит/сек
Ширина : 720 пикселей
Высота : 304 пикселя
Соотношение сторон : 2,35:1
Частота кадров : 25,000 кадров/сек
Цветовое пространство : YUV
Субдискретизация насыщенности : 4:2:0
Битовая глубина : 8 бит
Тип развёртки : Прогрессивная
Метод сжатия : С потерями
Бит/(Пиксели*Кадры) : 0.363
Размер потока : 1,20 Гбайт (83%)
Библиотека кодирования : XviD 1.2.1 (UTC 2008-12-04)
Аудио
Идентификатор : 1
Формат : AC-3
Формат/Информация : Audio Coding 3
Коммерческое название : Dolby Digital
Идентификатор кодека : 2000
Продолжительность : 1 ч. 26 м.
Вид битрейта : Постоянный
Битрейт : 384 Кбит/сек
Каналы : 6 каналов
Channel layout : L R C LFE Ls Rs
Частота : 48,0 КГц
Частота кадров : 31,250 кадров/сек (1536 SPF)
Битовая глубина : 16 бит
Метод сжатия : С потерями
Размер потока : 237 Мбайт (16%)
Выравнивание : Разделение по промежуткам
Продолжительность промежутка : 40 мс. (1,00 видеокадр)
Время предзагрузки промежутка : 500 мс.
ServiceKind/String : Complete Main
-Скриншоты:


Смотреть онлайн

[trackeroc.org].29097.torrent 
Torrent: Registered   [ 2019-09-12 03:30 ]

Скачать торрент

15 KB

Status: checked
Completed: 27 times
Size: 1.44 GB
 

Admin (12-сен-19)

Similar torrent
Forum Topic Author Size
Квесты, я ищу, Поиск предметов, Hidden Object Aladdin - Hidden Objects Game / Аладдин: Игры Поиск Предметов (2020) (ENG+RUS) Admin 129 MB
Детективы ,криминал Игры разумов / The Professor and the Madman (2019) Admin 1.46 GB
Квесты, я ищу, Поиск предметов, Hidden Object Whispered Secrets 8: Enfant Terrible / Нашептанные секреты 8: Детские кошмары [RUS / ENG] (2018) Admin 950 MB
Комедии Ночные игры / Game Night (2018) WEB-DL Admin 1.46 GB

_________________
[Profile] [PM]
Display posts from previous:    
Reply to topic

The time now is: Today 08:12

All times are GMT + 4 Hours



You cannot post new topics in this forum
You cannot reply to topics in this forum
You cannot edit your posts in this forum
You cannot delete your posts in this forum
You cannot vote in polls in this forum
You cannot attach files in this forum
You can download files in this forum