Человек-паук: Вдали от дома / Spider-Man: Far from Home [2019, WEBRip 1080p] [Extended Cut] скачать торрент

Reply to topic


DL-List and Torrent activity [Update пиров]
Size:  5.25 GB   |    Registered:  10 days   |    Completed:  1 time

Seeder not seen: 7 days

 
 
 
 
 
Author Message

.:Rtuty:. ®

Longevity: 1 month 10 days

Posts: 31

Location: Москва


Post 22-Jun-2022 13:14

[Quote]

--Человек-паук: Вдали от дома / Spider-Man: Far from Home-- Страна: США
Жанр: фантастика, боевик, приключения
Год выпуска: 2019
Продолжительность: 02:14:03--Перевод 1: Профессиональный (дублированный)
Перевод 2: Профессиональный (многоголосый закадровый) HDRezka Studio
Субтитры: русские (форс, полные), английские
Оригинальная аудиодорожка: английский--Режиссер: Джон Уоттс / Jon Watts--В ролях: Том Холланд, Сэмюэл Л. Джексон, Джейк Джилленхол, Зендея, Коби Смолдерс, Мариса Томей, Джон Фавро, Джейкоб Баталон, Тони Револори, Энгаури Райс--Описание: Питер Паркер вместе с одноклассниками отправляется на летние каникулы в Европу. Однако отдохнуть приятелям вряд ли удастся — по прибытии в Венецию группа попадет в эпицентр сражения. Некое существо, состоящее из воды, появляется из ниоткуда и начинает крушить всё на своём пути, и теперь Питеру придётся спасать европейские архитектурные памятники вместе с загадочным супергероем Мистерио.--Качество видео: WEBRip 1080p
Формат видео: MKV
Видео: AVC/H.264, 1920х1010, 23.976 fps, ~4513 Kbps
Аудио 1: AC3, 6 ch, 448 Kbps - Русский (DUB)
Аудио 2: AC3, 2 ch, 192 Kbps - Русский (MVO HDRezka Studio)
Аудио 3: AC3, 6 ch, 448 Kbps - Английский--

MediaInfo

Код:
General
Unique ID : 180153867172697674723649407825942741702 (0x87885F6BCA6CD8B78881C5C7F55902C6)
Complete name : D:Spider-Man. Far from Home (2019) IMAX Extended.mkv
Format : Matroska
Format version : Version 4
File size : 5.25 GiB
Duration : 2 h 14 min
Overall bit rate : 5 604 kb/s
Encoded date : UTC 2021-11-26 18:27:38
Writing application : mkvmerge v8.3.0 ('Over the Horizon') 32bit
Writing library : libebml v1.3.1 + libmatroska v1.4.2
Video
ID : 1
Format : AVC
Format/Info : Advanced Video Codec
Format profile : [email protected]
Format settings : CABAC / 4 Ref Frames
Format settings, CABAC : Yes
Format settings, Reference : 4 frames
Codec ID : V_MPEG4/ISO/AVC
Duration : 2 h 14 min
Bit rate : 4 513 kb/s
Width : 1 920 pixels
Height : 1 010 pixels
Display aspect ratio : 1.901
Frame rate mode : Constant
Frame rate : 23.976 (24000/1001) FPS
Color space : YUV
Chroma subsampling : 4:2:0
Bit depth : 8 bits
Scan type : Progressive
Bits/(Pixel*Frame) : 0.097
Stream size : 4.23 GiB (81%)
Writing library : x264 core 157 r2958 57baac4
Encoding settings : cabac=1 / ref=4 / deblock=1:-2:-2 / analyse=0x3:0x113 / me=umh / subme=10 / psy=1 / psy_rd=1.00:0.20 / mixed_ref=1 / me_range=32 / chroma_me=1 / trellis=2 / 8x8dct=1 / cqm=0 / deadzone=21,11 / fast_pskip=0 / chroma_qp_offset=-3 / threads=17 / lookahead_threads=4 / sliced_threads=0 / nr=0 / decimate=0 / interlaced=0 / bluray_compat=0 / constrained_intra=0 / bframes=14 / b_pyramid=2 / b_adapt=2 / b_bias=0 / direct=3 / weightb=1 / open_gop=0 / weightp=2 / keyint=240 / keyint_min=24 / scenecut=40 / intra_refresh=0 / rc=crf / mbtree=0 / crf=20.5 / qcomp=0.60 / qpmin=0 / qpmax=69 / qpstep=4 / ip_ratio=1.40 / pb_ratio=1.30 / aq=1:1.00
Default : Yes
Forced : No
Color range : Limited
Color primaries : BT.709
Transfer characteristics : BT.709
Matrix coefficients : BT.709
Audio #1
ID : 2
Format : AC-3
Format/Info : Audio Coding 3
Commercial name : Dolby Digital
Codec ID : A_AC3
Duration : 2 h 14 min
Bit rate mode : Constant
Bit rate : 448 kb/s
Channel(s) : 6 channels
Channel layout : L R C LFE Ls Rs
Sampling rate : 48.0 kHz
Frame rate : 31.250 FPS (1536 SPF)
Compression mode : Lossy
Stream size : 430 MiB (8%)
Title : DUB
Language : Russian
Service kind : Complete Main
Default : Yes
Forced : No
Audio #2
ID : 3
Format : AC-3
Format/Info : Audio Coding 3
Commercial name : Dolby Digital
Codec ID : A_AC3
Duration : 2 h 14 min
Bit rate mode : Constant
Bit rate : 192 kb/s
Channel(s) : 2 channels
Channel layout : L R
Sampling rate : 48.0 kHz
Frame rate : 31.250 FPS (1536 SPF)
Compression mode : Lossy
Stream size : 184 MiB (3%)
Title : MVO
Language : Russian
Service kind : Complete Main
Default : No
Forced : No
Audio #3
ID : 4
Format : AC-3
Format/Info : Audio Coding 3
Commercial name : Dolby Digital
Codec ID : A_AC3
Duration : 2 h 14 min
Bit rate mode : Constant
Bit rate : 448 kb/s
Channel(s) : 6 channels
Channel layout : L R C LFE Ls Rs
Sampling rate : 48.0 kHz
Frame rate : 31.250 FPS (1536 SPF)
Compression mode : Lossy
Stream size : 430 MiB (8%)
Language : English
Service kind : Complete Main
Default : No
Forced : No
Text #1
ID : 5
Format : UTF-8
Codec ID : S_TEXT/UTF8
Codec ID/Info : UTF-8 Plain Text
Duration : 2 h 12 min
Bit rate : 4 b/s
Count of elements : 70
Stream size : 4.05 KiB (0%)
Title : forced
Language : Russian
Default : Yes
Forced : No
Text #2
ID : 6
Format : UTF-8
Codec ID : S_TEXT/UTF8
Codec ID/Info : UTF-8 Plain Text
Duration : 2 h 12 min
Bit rate : 92 b/s
Count of elements : 1723
Stream size : 90.3 KiB (0%)
Title : full
Language : Russian
Default : No
Forced : No
Text #3
ID : 7
Format : UTF-8
Codec ID : S_TEXT/UTF8
Codec ID/Info : UTF-8 Plain Text
Duration : 2 h 12 min
Bit rate : 62 b/s
Count of elements : 1802
Stream size : 60.3 KiB (0%)
Language : English
Default : No
Forced : No

Скриншоты



Смотреть онлайн

[trackeroc.org].34777.torrent  Магнет ссылка
Torrent: Registered   [ 2022-06-22 13:14 ]

Скачать торрент

14 KB

Status: checked
Completed: 13 times
Size: 5.25 GB
 

trackeroc.info (22-июн-22)

Similar torrent
Forum Topic Author Size
Фантастика ,Фэнтези Человек-паук: Нет пути домой / Spider-Man: No Way Home [2021, HDRip] Dub .:Rtuty:. 1.48 GB
Зарубежные Супермен: Человек завтрашнего дня / Superman: Man of Tomorrow (2020) WEB-DLRip trackeroc.org 1.16 GB
Ужасы ,мистика ,триллеры Человек-невидимка / The Invisible Man (2020) WEB-DLRip trackeroc.info 1.46 GB
Зарубежные сериалы Почти человек / Almost Human (2013) WEB-DLRip (Сезон 1 / Серии 1-13 из 13) LostFilm Pro100Moder 7.38 GB

_________________
[Profile] [PM]
Display posts from previous:    
Reply to topic

The time now is: Today 09:53

All times are GMT + 4 Hours



You cannot post new topics in this forum
You cannot reply to topics in this forum
You cannot edit your posts in this forum
You cannot delete your posts in this forum
You cannot vote in polls in this forum
You cannot attach files in this forum
You can download files in this forum