Бурёнка Даша (2015-2021) (серии 1-99 из 105) скачать торрент

Reply to topic


DL-List and Torrent activity [Update пиров]
Size:  3.54 GB   |    Registered:  1 month 2 days   |    Completed:  1 time
Seeders:  5  [  22 KB/s  ]   Leechers:  2  [  979 KB/s  ]   Show peers in full details
 
 
 
 
Author Message

Pro100Moder ®

Longevity: 7 years 2 months

Posts: 2512

Location: Earth


Post 15-Feb-2017 19:32

[Quote]

Бурёнка Даша - Производство: Беларусь / Plumus Studio, Animator Pro
Жанр: Детский, Музыкальный, Развивающий, Обучающий
Режиссер: Александр Брухнов, Виталий Захаров, Сергей Чернышёв
Актеры: Анастасия Федорцова, Илия Федорцова, Олег Лихорад
Персонажи: Даша, Саша, Борька
Описание:
Бурёнка Даша» - это уникальный мультипликационный караоке-проект основанный на народных песнях и сказках, а также на авторских историях о главных персонажах. Каждая песня – это увлекательное путешествие, в которое дружная семья Даши приглашает детей и их родителей. В игровой форме мы будем учиться народной мудрости, вместе с любимыми героями узнаем много нового и интересного, совершим невероятные открытия и, конечно, будем петь песни и веселиться!

Возраст: 0+ (для любой зрительской аудитории)
Релиз от: Natasha77 (NNM-Club)
Продолжительность: ~ 00:02:30 серия
Качество видео: WEB-DLRip
Перевод: Не требуется (Русский)
Субтитры: Отсутствуют
Видео: AVC/H.264, 1920x1080, ~2500 kbps
Аудио: AAC, 2 ch, 128 kbps

Mediainfo:

General
Unique ID : 189487254163524879756642689457345163855 (0x8E8DEAED8E77C0F29FBC4A0884A2724F)
Complete name : C:/43. Снежинки.mkv
Format : Matroska
Format version : Version 4 / Version 2
File size : 49.4 MiB
Duration : 2 min 16 s
Overall bit rate : 3 048 kb/s
Encoded date : UTC 2018-04-30 08:47:03
Writing application : mkvmerge v22.0.0 ('At The End Of The World') 32-bit
Writing library : libebml v1.3.5 + libmatroska v1.4.8
Video
ID : 1
Format : AVC
Format/Info : Advanced Video Codec
Format profile : [email protected]
Format settings : CABAC / 3 Ref Frames
Format settings, CABAC : Yes
Format settings, ReFrames : 3 frames
Codec ID : V_MPEG4/ISO/AVC
Duration : 2 min 16 s
Bit rate : 2 921 kb/s
Width : 1 920 pixels
Height : 1 080 pixels
Display aspect ratio : 16:9
Frame rate mode : Constant
Frame rate : 25.000 FPS
Color space : YUV
Chroma subsampling : 4:2:0
Bit depth : 8 bits
Scan type : Progressive
Bits/(Pixel*Frame) : 0.056
Stream size : 47.4 MiB (96%)
Default : Yes
Forced : No
Color range : Limited
Color primaries : BT.709
Transfer characteristics : BT.709
Matrix coefficients : BT.709
Audio
ID : 2
Format : AAC
Format/Info : Advanced Audio Codec
Format profile : LC
Codec ID : A_AAC-2
Duration : 2 min 16 s
Bit rate : 126 kb/s
Channel(s) : 2 channels
Channel positions : Front: L R
Sampling rate : 44.1 kHz
Frame rate : 43.066 FPS (1024 SPF)
Compression mode : Lossy
Stream size : 2.04 MiB (4%)
Default : Yes
Forced : No
-Скриншоты:


Смотреть онлайн

[trackeroc.org].18531.torrent  Магнет ссылка
Torrent: Registered   [ 2021-05-16 17:25 ]

Скачать торрент

25 KB

Status: * not checked
Completed: 606 times
Size: 3.54 GB
 

Similar torrent
Forum Topic Author Size
Инди, Sandbox (GOG) Prison Architect [the_pen_6327 + 5 DLC] (2015) (RUS|ENG) trackeroc.info 520 MB
Strategy, Стратегии Red Solstice 2: Survivors [RUS / ENG] (2021) (Build 6877287) [Scene] trackeroc.info 5.46 GB
Квесты, я ищу, Поиск предметов, Hidden Object Around the World with the Johnson Family (2021) (ENG) trackeroc.info 258 MB
Квесты, я ищу, Поиск предметов, Hidden Object Hidden Expedition 21: A King's Line (2021) (ENG) trackeroc.info 1.16 GB
Strategy, Стратегии Spellcaster University [ENG + 3 / ENG + 1] (2021) (1.00) [GOG] trackeroc.info 1.78 GB

_________________
[Profile] [PM]
Display posts from previous:    
Reply to topic

The time now is: Today 04:48

All times are GMT + 4 Hours



You cannot post new topics in this forum
You cannot reply to topics in this forum
You cannot edit your posts in this forum
You cannot delete your posts in this forum
You cannot vote in polls in this forum
You cannot attach files in this forum
You can download files in this forum