Бэтмен / The Batman [2022, BDRip] Dub (iTunes) + Sub (Rus, Eng) + Original Eng скачать торрент

Reply to topic


DL-List and Torrent activity [Update пиров]
Size:  2.18 GB   |    Registered:  27 days   |    Completed:  2 times
Seeders:  2  [  0 KB/s  ]   Show peers in full details
 
 
 
 
Author Message

.:Rtuty:. ®

Longevity: 1 month 10 days

Posts: 31

Location: Москва


Post 05-Jun-2022 17:59

[Quote]

-Бэтмен / The Batman- Страна: США
Жанр: боевик, драма, криминал, детектив
Год выпуска: 2022
Продолжительность: 02:56:11-Перевод: Профессиональный (дублированный) | iTunes
Субтитры: русские, английские
Оригинальная аудиодорожка: английский-Режиссер: Мэтт Ривз / Matt Reeves-В ролях: Роберт Паттинсон, Зои Кравиц, Колин Фаррелл, Джеффри Райт, Пол Дано, Джейми Лоусон, Энди Серкис, Джон Туртурро, Питер Сарсгаард, Кон О’Нилл, Макс Карвер, Чарли Карвер, Марк Киллин-Описание: Два года борьбы с преступностью под маской Бэтмена приводят Брюса Уэйна в самые темные закоулки Готэм-сити. Когда объявляется загадочный убийца, угрожающий элите города, Бэтмен погружается в недра криминального мира, где на его пути оказывается Женщина-кошка Селина Кайл, Освальд Кобблпот, известный как Пингвин, Кармайн Фальконе и Эдвард Нэштон — он же Загадочник. С помощью своих союзников — Альфреда Пенниворта и лейтенанта Джеймса Гордона — Уэйну предстоит разоблачить злодея и восстановить справедливость среди коррумпированной власти, отравляющей жизнь Готэма.- -Качество видео: BDRip
Формат видео: AVI
Видео: 720x304 (2.37:1), 23.976 fps, XviD build 73 ~1191 kbps avg, 0.23 bit/pixel
Аудио 1: 48 kHz, AC3 Dolby Digital, 3/2 (L,C,R,l,r) + LFE ch, ~384 kbps | RUS
Аудио 2: 48 kHz, AC3 Dolby Digital, 2/0 (L,R) ch, ~192 kbps | ENG-

MediaInfo

Код:
Формат                                   : AVI
Формат/Информация                        : Audio Video Interleave
Профиль формата                          : OpenDML
Размер файла                             : 2,18 Гбайт
Продолжительность                        : 2 ч. 56 м.
Общий поток                              : 1 775 Кбит/сек
Название фильма                          : Бэтмен_2022_BDRip
Программа кодирования                    : VirtualDubMod 1.5.10.2 (build 2542/release)
Авторское право                          : порошков
Видео
Идентификатор                            : 0
Формат                                   : MPEG-4 Visual
Профиль формата                          : Advanced [email protected]
Настройки формата                        : BVOP1 / Custom Matrix
Параметр BVOP формата                    : 1
Параметр QPel формата                    : Нет
Параметр GMC формата                     : Без точки перехода
Параметр матрицы формата                 : Выборочная
Идентификатор кодека                     : XVID
Идентификатор кодека/Подсказка           : XviD
Продолжительность                        : 2 ч. 56 м.
Битрейт                                  : 1 181 Кбит/сек
Ширина                                   : 720 пикселей
Высота                                   : 304 пикселя
Соотношение сторон                       : 2,35:1
Частота кадров                           : 23,976 (24000/1001) кадра/сек
Цветовое пространство                    : YUV
Субдискретизация насыщенности            : 4:2:0
Битовая глубина                          : 8 бит
Тип развёртки                            : Прогрессивная
Метод сжатия                             : С потерями
Бит/(Пиксели*Кадры)                      : 0.225
Размер потока                            : 1,45 Гбайт (67%)
Библиотека кодирования                   : XviD 73
Аудио #1
Идентификатор                            : 1
Формат                                   : AC-3
Формат/Информация                        : Audio Coding 3
Коммерческое название                    : Dolby Digital
Идентификатор кодека                     : 2000
Продолжительность                        : 2 ч. 56 м.
Вид битрейта                             : Постоянный
Битрейт                                  : 384 Кбит/сек
Каналы                                   : 6 каналов
Channel layout                           : L R C LFE Ls Rs
Частота                                  : 48,0 КГц
Частота кадров                           : 31,250 кадров/сек (1536 SPF)
Метод сжатия                             : С потерями
Размер потока                            : 484 Мбайт (22%)
Выравнивание                             : Разделение по промежуткам
Продолжительность промежутка             : 42  мс. (1,00 видеокадр)
Время предзагрузки промежутка            : 500  мс.
Заголовок                                : rus
Service kind                             : Complete Main
Аудио #2
Идентификатор                            : 2
Формат                                   : AC-3
Формат/Информация                        : Audio Coding 3
Коммерческое название                    : Dolby Digital
Идентификатор кодека                     : 2000
Продолжительность                        : 2 ч. 56 м.
Вид битрейта                             : Постоянный
Битрейт                                  : 192 Кбит/сек
Каналы                                   : 2 канала
Channel layout                           : L R
Частота                                  : 48,0 КГц
Частота кадров                           : 31,250 кадров/сек
(1536 SPF)
Метод сжатия                             : С потерями
Размер потока                            : 242 Мбайт (11%)
Выравнивание                             : Разделение по промежуткам
Продолжительность промежутка             : 42  мс. (1,00 видеокадр)
Время предзагрузки промежутка            : 500  мс.
Заголовок                                : eng
Service kind                             : Complete Main

Скриншоты



Смотреть онлайн

[trackeroc.org].34668.torrent  Магнет ссылка
Torrent: Registered   [ 2022-06-05 18:12 ]

Скачать торрент

12 KB

Status: checked
Completed: 33 times
Size: 2.18 GB
 

trackeroc.info (05-июн-22), wqqeem (09-июн-22)

Similar torrent
Forum Topic Author Size
Зарубежные Бэтмен: Душа дракона / Batman: Soul of the Dragon (2021) BDRip | iTunes trackeroc.info 1.42 GB
Зарубежные Бэтмен: Нападение на Аркхэм / Batman: Assault on Arkham (2014) WEB-DL [720p] Pro100Moder 2.43 GB
Зарубежные Безграничный Бэтмен: Хаос / Batman Unlimited: Monster Mayhem (2015) BDRip trackeroc.info 2.12 GB

_________________
[Profile] [PM]
Display posts from previous:    
Reply to topic

The time now is: Today 10:16

All times are GMT + 4 Hours



You cannot post new topics in this forum
You cannot reply to topics in this forum
You cannot edit your posts in this forum
You cannot delete your posts in this forum
You cannot vote in polls in this forum
You cannot attach files in this forum
You can download files in this forum