Бесшумный / The Silencing (2020) WEBRip [MVO] скачать торрент

Reply to topic

DL-List and Torrent activity [Update пиров]
Size:  1.45 GB   |    Registered:  17 days   |    Completed:  0 times

Seeder not seen: Never

 
 
 
 
 
Author Message

Captain ®

Longevity: 6 years 5 months

Posts: 2557

Location: Earth


Post 10-Sep-2020 02:45

[Quote]

Бесшумный / The Silencing - Производство: Канада, США / Anova Pictures, Madrona Drive, Silencing Canada Productions, Wildling Pictures
Жанр: Боевик, триллер, криминал
Режиссер: Робин Пронт
Актеры: Николай Костер-Вальдау, Аннабелль Уоллис, Зан Маккларнон, Мелани Скрофано, Хиро Файнс-Тиффин, Джош Круддас, Даниэль Райан, Kayla Dumont, Даина Барбо, Шон Смит
Описание:
Мужчина с тяжелым прошлым живёт в уединении в лесу, когда на местности начинают находить девушек, убитых необычным способом. Он объединяется с шерифом, пытается выследить маньяка и вскоре начинает подозревать, что тот несколько лет назад похитил его дочь.

Рейтинг MPAA: R (лицам до 17 лет обязательно присутствие взрослого)
Дата мировой премьеры: 18 июля 2020
Продолжительность: 01:34:20
Качество видео: WEBRip
Перевод: Многоголосый профессиональный (HDRezka Studio)
Субтитры: Русские (Forced), английские (Full)
Видео: XviD, 720x304, ~2000 Kbps
Аудио: AC-3, 2 ch, 192 Kbps

MediaInfo:

Общее
Полное имя : The.Silencing.2020.WEB-DLRip.avi
Формат : AVI
Формат/Информация : Audio Video Interleave
Размер файла : 1,45 Гбайт
Продолжительность : 1 ч. 34 м.
Общий поток : 2202 Кбит/сек
Программа кодирования : VirtualDubMod 1.5.10.3 | www.virtualdub-fr.org || (build 2550/release)
Библиотека кодирования : VirtualDubMod build 2550/release
Видео
Идентификатор : 0
Формат : MPEG-4 Visual
Профиль формата : Advanced [email protected]
Настройки формата : BVOP1 / Custom Matrix
Параметр BVOP формата : 1
Параметр QPel формата : Нет
Параметр GMC формата : Без точки перехода
Параметр матрицы формата : Выборочная
Идентификатор кодека : XVID
Идентификатор кодека/Подсказка : XviD
Продолжительность : 1 ч. 34 м.
Битрейт : 2000 Кбит/сек
Ширина : 720 пикселей
Высота : 304 пикселя
Соотношение сторон : 2,35:1
Частота кадров : 23,976 (24000/1001) кадра/сек
Частота кадров в оригинале : 23,976 (23976/1000) кадра/сек
Цветовое пространство : YUV
Субдискретизация насыщенности : 4:2:0
Битовая глубина : 8 бит
Тип развёртки : Прогрессивная
Метод сжатия : С потерями
Бит/(Пиксели*Кадры) : 0.381
Размер потока : 1,32 Гбайт (91%)
Библиотека кодирования : XviD 69
Аудио
Идентификатор : 1
Формат : AC-3
Формат/Информация : Audio Coding 3
Коммерческое название : Dolby Digital
Идентификатор кодека : 2000
Продолжительность : 1 ч. 34 м.
Вид битрейта : Постоянный
Битрейт : 192 Кбит/сек
Каналы : 2 канала
ChannelLayout : L R
Частота : 48,0 КГц
Частота кадров : 31,250 кадров/сек (1536 SPF)
Метод сжатия : С потерями
Задержка видео : 13 мс.
Размер потока : 130 Мбайт (9%)
Выравнивание : Разделение по промежуткам
Продолжительность промежутка : 42 мс. (1,00 видеокадр)
Время предзагрузки промежутка : 500 мс.
ServiceKind/String : Complete Main
-Скриншоты:


Смотреть онлайн

[trackeroc.org].31790.torrent  Магнет ссылка
Torrent: Registered   [ 2020-09-10 02:45 ]

Скачать торрент

15 KB

Status: checked
Completed: 10 times
Size: 1.45 GB
 

trackeroc.org (10-сен-20)


_________________
[Profile] [PM]
Display posts from previous:    
Reply to topic

The time now is: Today 12:09

All times are GMT + 4 Hours



You cannot post new topics in this forum
You cannot reply to topics in this forum
You cannot edit your posts in this forum
You cannot delete your posts in this forum
You cannot vote in polls in this forum
You cannot attach files in this forum
You can download files in this forum