Байки из склепа / Tales from the Crypt (1972) BDRip [H.264] [VO] скачать торрент

Reply to topic


DL-List and Torrent activity [Update пиров]
Size:  1.66 GB   |    Registered:  2 months 19 days   |    Completed:  0 times
Seeders:  15  [  581 KB/s  ]   Leechers:  2  [  7 MB/s  ]   Show peers in full details
 
 
 
 
Author Message

Pro100Moder ®

Longevity: 8 years

Posts: 2453

Location: Earth


Post 25-Feb-2022 09:41

[Quote]

Байки из склепа / Tales from the Crypt «DEATH LIVES in the Vault of Horror!»- Производство: Великобритания
Жанр: ужасы, триллер, драма, детектив
Режиссер: Фредди Фрэнсис
Продюсер: Милтон Суботски, Чарльз В. Фрайс, Макс Розенберг
Актеры: Джоан Коллинз, Питер Кушинг, Рой Дотрис, Ричард Грин, Иэн Хендри, Патрик Мэги, Барбара Мюррэй, Найджел Патрик, Робин Филлипс, Ральф Ричардсон, Джеффри Бэйлдон, Дэвид Маркам, Роберт Хаттон, Анджела Грант, Сьюзэн Денни, Мэннинг Уилсон, Хлоя Фрэнкс, Кэй Адриан, Карлос Бэйкер
Описание:
Пятеро туристов на экскурсии по катакомбам случайно сбиваются с пути и забредают в странную комнату, где встречают странного человека, который рассказывает им истории об их смерти.

Возраст: 16+ (зрителям, достигшим 16 лет)
Рейтинг MPAA: PG (рекомендуется присутствие родителей)
Релиз от: lexx256 ®
Продолжительность: 01:32:12
Качество видео: BDRip
Перевод: Одноголосый любительский
Субтитры: отсутствуют
Видео: AVC/H.264, 1024x552, ~2200 Kbps
Аудио:1 AC3, 2 ch, 192 | Русский (VO, Павел Иванов Aka Eraserhead)
Аудио:2 AC3, 2 ch, 192 | Английский

MediaInfo:

General
Unique ID : 338830470509556056340271964991254145791 (0xFEE85FFAEC0D28667474E76B6EDBAAFF)
Complete name : Байки из склепа-1972 (BDRip By Mastersnof).mkv
Format : Matroska
Format version : Version 4
File size : 1.66 GiB
Duration : 1 h 32 min
Overall bit rate mode : Constant
Overall bit rate : 2 580 kb/s
Encoded date : UTC 2022-02-16 06:19:23
Writing application : mkvmerge v63.0.0 ('Everything') 64-bit
Writing library : libebml v1.4.2 + libmatroska v1.6.4
Video
ID : 1
Format : AVC
Format/Info : Advanced Video Codec
Format profile : [email protected]
Format settings : CABAC / 14 Ref Frames
Format settings, CABAC : Yes
Format settings, Reference : 14 frames
Codec ID : V_MPEG4/ISO/AVC
Duration : 1 h 32 min
Bit rate mode : Constant
Bit rate : 2 200 kb/s
Width : 1 024 pixels
Height : 552 pixels
Display aspect ratio : 1.85:1
Frame rate mode : Constant
Frame rate : 24.000 FPS
Color space : YUV
Chroma subsampling : 4:2:0
Bit depth : 8 bits
Scan type : Progressive
Bits/(Pixel*Frame) : 0.162
Stream size : 1.41 GiB (85%)
Language : English
Default : Yes
Forced : No
Color range : Limited
Color primaries : BT.709
Transfer characteristics : BT.709
Matrix coefficients : BT.709
Audio #1
ID : 2
Format : AC-3
Format/Info : Audio Coding 3
Commercial name : Dolby Digital
Codec ID : A_AC3
Duration : 1 h 32 min
Bit rate mode : Constant
Bit rate : 192 kb/s
Channel(s) : 2 channels
Channel layout : L R
Sampling rate : 48.0 kHz
Frame rate : 31.250 FPS (1536 SPF)
Bit depth : 32 bits
Compression mode : Lossy
Stream size : 127 MiB (7%)
Title : Любительский (одноголосый) - Павел Иванов Aka Eraserhead
Language : Russian
Service kind : Complete Main
Default : Yes
Forced : No
Audio #2
ID : 3
Format : AC-3
Format/Info : Audio Coding 3
Commercial name : Dolby Digital
Codec ID : A_AC3
Duration : 1 h 32 min
Bit rate mode : Constant
Bit rate : 192 kb/s
Channel(s) : 2 channels
Channel layout : L R
Sampling rate : 48.0 kHz
Frame rate : 31.250 FPS (1536 SPF)
Bit depth : 16 bits
Compression mode : Lossy
Stream size : 127 MiB (7%)
Title : Английский
Language : English
Service kind : Complete Main
Default : No
Forced : No
Скриншоты:


Смотреть онлайн

[trackeroc.org].34271.torrent  Магнет ссылка
Torrent: Registered   [ 2022-02-25 09:41 ]

Скачать торрент

17 KB

Status: checked
Completed: 173 times
Size: 1.66 GB
 

trackeroc.info (25-фев-22)

[Profile] [PM]
Display posts from previous:    
Reply to topic

The time now is: Today 23:38

All times are GMT + 4 Hours



You cannot post new topics in this forum
You cannot reply to topics in this forum
You cannot edit your posts in this forum
You cannot delete your posts in this forum
You cannot vote in polls in this forum
You cannot attach files in this forum
You can download files in this forum