Аванпост (2019) HDRip скачать торрент

Reply to topic

DL-List and Torrent activity [Update пиров]
Size:  1.46 GB   |    Registered:  1 month 19 days   |    Completed:  0 times
Seeders:  19  [  70 KB/s  ]   Leechers:  2  [  12 MB/s  ]   Show peers in full details
 
 
 
 
Author Message

Captain ®

Longevity: 6 years 2 months

Posts: 2463

Location: Earth


Post 25-May-2020 15:24

[Quote]

Аванпост - Производство: Россия / 1-2-3 Production, TNT-Premier, Канал ТВ-3
Жанр: Триллер, фантастика, боевик
Режиссер: Егор Баранов
Актеры: Лукерья Ильяшенко, Пётр Фёдоров, Светлана Иванова, Алексей Чадов, Ксения Кутепова, Константин Лавроненко, Филипп Авдеев, Артем Маркарьян, Сергей Годин, Артем Ткаченко
Описание:
В недалеком будущем что-то произошло. Связь с большей частью населенных пунктов Земли оборвалась. Космонавты передали с орбиты, что видят сверху небольшое пятно в Восточной Европе, по своим очертаниям напоминающее круг. То, что военные находят за границей этого круга, шокирует. В магазинах, в автомобилях, на дорогах, в зданиях больниц и вокзалов, повсюду - следы столкновений. Кто или что уничтожает все живое? И как долго продержится последний аванпост человечества?

Возраст: 16+ (зрителям, достигшим 16 лет)
Дата мировой премьеры: 22 ноября 2019
Дата российской премьеры: 21 ноября 2019
Продолжительность: 02:07:29
Качество видео: HDRip
Перевод: Не требуется (русский) Лицензия
Субтитры: Отсутствуют
Видео: Xvid, 720x304, 1184 kbps
Аудио: AC3, 6 ch, 448 kbps

MediaInfo:

Общее
Полное имя : Аванпост.2019.HDRip.avi
Формат : AVI
Формат/Информация : Audio Video Interleave
Размер файла : 1,46 Гбайт
Продолжительность : 2 ч. 7 м.
Общий поток : 1641 Кбит/сек
Программа кодирования : VirtualDubMod 1.5.10.2 (build 2540/release)
Библиотека кодирования : VirtualDubMod build 2540/release
Видео
Идентификатор : 0
Формат : MPEG-4 Visual
Профиль формата : Advanced [email protected]
Настройки формата : BVOP2
Параметр BVOP формата : 2
Параметр QPel формата : Нет
Параметр GMC формата : Без точки перехода
Параметр матрицы формата : Default (MPEG)
Идентификатор кодека : XVID
Идентификатор кодека/Подсказка : XviD
Продолжительность : 2 ч. 7 м.
Битрейт : 1184 Кбит/сек
Ширина : 720 пикселей
Высота : 304 пикселя
Соотношение сторон : 2,35:1
Частота кадров : 23,976 (24000/1001) кадра/сек
Цветовое пространство : YUV
Субдискретизация насыщенности : 4:2:0
Битовая глубина : 8 бит
Тип развёртки : Прогрессивная
Метод сжатия : С потерями
Бит/(Пиксели*Кадры) : 0.226
Размер потока : 1,05 Гбайт (72%)
Библиотека кодирования : XviD 1.2.1 (UTC 2008-12-04)
Аудио
Идентификатор : 1
Формат : AC-3
Формат/Информация : Audio Coding 3
Коммерческое название : Dolby Digital
Идентификатор кодека : 2000
Продолжительность : 2 ч. 7 м.
Вид битрейта : Постоянный
Битрейт : 448 Кбит/сек
Каналы : 6 каналов
ChannelLayout : L R C LFE Ls Rs
Частота : 48,0 КГц
Частота кадров : 31,250 кадров/сек (1536 SPF)
Метод сжатия : С потерями
Размер потока : 409 Мбайт (27%)
Выравнивание : Разделение по промежуткам
Продолжительность промежутка : 42 мс. (1,00 видеокадр)
Время предзагрузки промежутка : 500 мс.
ServiceKind/String : Complete Main
-Скриншоты:


Смотреть онлайн

[trackeroc.org].30747.torrent  Магнет ссылка
Torrent: Registered   [ 2020-05-25 15:24 ]

Скачать торрент

15 KB

Status: checked
Completed: 25 times
Size: 1.46 GB
 

Admin (25-май-20)

Similar torrent
Forum Topic Author Size
Ужасы ,мистика ,триллеры Хелтер-скелтер / Heruta sukeruta (2012) HDRip [DVO] Captain 1.46 GB
Strategy, Стратегии Basement v4.2.0.8 [RUS|ENG] (2019) Admin 679 MB
Strategy, Стратегии Workers & Resources: Soviet Republic (2019) [Ru/Multi] (0.8.2.9) [Early Access] Admin 713 MB
Strategy, Стратегии Rec Center Tycoon v0.4.2 (2019) (ENG) [Early Access] Admin 32 MB
Strategy, Стратегии EarthX v0.3.1 [Early Access] (2019) (RUS/ENG) Admin 117 MB

_________________
[Profile] [PM]
Display posts from previous:    
Reply to topic

The time now is: Today 00:54

All times are GMT + 4 Hours



You cannot post new topics in this forum
You cannot reply to topics in this forum
You cannot edit your posts in this forum
You cannot delete your posts in this forum
You cannot vote in polls in this forum
You cannot attach files in this forum
You can download files in this forum