Аркейн / Arcane: League of Legends (2021) WEB-DL [H.264/720p] (сезон 1, серии 1-9 из 9) Iyuno-SDI Group скачать торрент

Reply to topic


DL-List and Torrent activity [Update пиров]
Size:  7.13 GB   |    Registered:  11 days   |    Completed:  0 times
Seeders:  21  [  1 MB/s  ]   Leechers:  8  [  4 MB/s  ]   Show peers in full details
 
 
 
 
Author Message

Pro100Moder ®

Longevity: 7 years 7 months

Posts: 2478

Location: Earth


Post 24-Nov-2021 03:37

[Quote]

Аркейн / Arcane: League of Legends «Every legend has a beginning»- Производство: США, Франция / Fortiche Production, Riot Games
Жанр: мультфильм, фантастика, фэнтези, боевик, драма
Режиссер: Паскаль Шаррю, Жером Комбе, Арно Делорд
Описание:
Мультсериал основан на видеоигре League of Legends.
История разворачивается в утопическом краю Пилтовере и жестоком подземном мире Зауне и рассказывает о становлении двух легендарных чемпионов Лиги и о той силе, что разведёт их по разные стороны баррикад.

Возраст: 16+ (зрителям, достигшим 16 лет)
Дата мировой премьеры: 6 ноября 2021
Цифровой релиз: 6 ноября 2021, «Netflix»
Релиз от: Dantenecto
Продолжительность: ~00:40:00 серия
Качество видео: WEB-DL
Перевод: Профессиональный (полное дублирование) | Iyuno-SDI Group (ранее SDI Media Russia)
Язык озвучки: Русский, Английский
Субтитры: Русские (Forced, Full), Английские (SDH)
Видео: AVC/H.264, 1280x720, ~1500 kbps
Аудио 1: E-AC3, 6 ch, 640 kbps, Русский (Dub, Iyuno-SDI Group)
Аудио 2: E-AC3, 6 ch, 640 kbps, Английский (Original)

MediaInfo:

Общее
Уникальный идентификатор : 187768573363325606819956831353895175763 (0x8D42E96C1653CA95A0D0083D1F8CC653)
Полное имя : Arcane.S01.720p.WEB-DL.SDI_Media\Arcane.S01E01.720p.WEB-DL.SDI_Media.mkv
Формат : Matroska
Версия формата : Version 4
Размер файла : 812 Мбайт
Продолжительность : 43 м. 25 с.
Режим общего битрейта : Переменный
Общий поток : 2 616 Кбит/сек
Название фильма : Arcane S01E01 [Welcome to the Playground] - EniaHD
Дата кодирования : UTC 2021-11-07 12:13:09
Программа кодирования : mkvmerge v9.1.0 ('Little Earthquakes') 32bit
Библиотека кодирования : libebml v1.3.3 + libmatroska v1.4.4
Видео
Идентификатор : 6
Формат : AVC
Формат/Информация : Advanced Video Codec
Профиль формата : [email protected]
Настройки формата : CABAC / 3 Ref Frames
Параметр CABAC формата : Да
Параметр RefFrames формата : 3 кадра
Идентификатор кодека : V_MPEG4/ISO/AVC
Продолжительность : 43 м. 25 с.
Вид битрейта : Переменный
Битрейт : 1 334 Кбит/сек
Номинальный битрейт : 1 503 Кбит/сек
Максимальный битрейт : 2 535 Кбит/сек
Ширина : 1 280 пикселей
Высота : 720 пикселей
Соотношение сторон : 16:9
Режим частоты кадров : Постоянный
Частота кадров : 24,000 кадра/сек
Цветовое пространство : YUV
Субдискретизация насыщенности : 4:2:0
Битовая глубина : 8 бит
Тип развёртки : Прогрессивная
Бит/(Пиксели*Кадры) : 0.060
Размер потока : 414 Мбайт (51%)
Библиотека кодирования : x264 core 148 r2724 dbe0335
Настройки программы : cabac=1 / ref=3 / deblock=1:0:0 / analyse=0x1:0x111 / me=umh / subme=10 / psy=1 / psy_rd=1.00:0.00 / mixed_ref=1 / me_range=24 / chroma_me=1 / trellis=2 / 8x8dct=0 / cqm=0 / deadzone=21,11 / fast_pskip=1 / chroma_qp_offset=-2 / threads=8 / lookahead_threads=1 / sliced_threads=0 / nr=0 / decimate=1 / interlaced=0 / bluray_compat=0 / stitchable=1 / constrained_intra=0 / bframes=2 / b_pyramid=0 / b_adapt=2 / b_bias=0 / direct=3 / weightb=1 / open_gop=0 / weightp=2 / keyint=250 / keyint_min=24 / scenecut=0 / intra_refresh=0 / rc_lookahead=48 / rc=2pass / mbtree=1 / bitrate=1503 / ratetol=1.0 / qcomp=0.50 / qpmin=6 / qpmax=51 / qpstep=4 / cplxblur=20.0 / qblur=0.5 / vbv_maxrate=2535 / vbv_bufsize=3380 / nal_hrd=vbr / filler=0 / ip_ratio=1.40 / aq=1:1.00
Язык : English
Default : Да
Forced : Нет
Аудио #1
Идентификатор : 1
Формат : E-AC-3
Формат/Информация : Enhanced AC-3
Коммерческое название : Dolby Digital Plus
Идентификатор кодека : A_EAC3
Продолжительность : 43 м. 25 с.
Вид битрейта : Постоянный
Битрейт : 640 Кбит/сек
Каналы : 6 каналов
Channel layout : L R C LFE Ls Rs
Частота : 48,0 КГц
Частота кадров : 31,250 кадров/сек (1536 SPF)
Метод сжатия : С потерями
Размер потока : 199 Мбайт (24%)
Язык : Russian
Service kind : Complete Main
Default : Да
Forced : Нет
Аудио #2
Идентификатор : 2
Формат : E-AC-3
Формат/Информация : Enhanced AC-3
Коммерческое название : Dolby Digital Plus
Идентификатор кодека : A_EAC3
Продолжительность : 43 м. 25 с.
Вид битрейта : Постоянный
Битрейт : 640 Кбит/сек
Каналы : 6 каналов
Channel layout : L R C LFE Ls Rs
Частота : 48,0 КГц
Частота кадров : 31,250 кадров/сек (1536 SPF)
Метод сжатия : С потерями
Размер потока : 199 Мбайт (24%)
Язык : English
Service kind : Complete Main
Default : Нет
Forced : Нет
Текст #1
Идентификатор : 3
Формат : UTF-8
Идентификатор кодека : S_TEXT/UTF8
Идентификатор кодека/Информация : UTF-8 Plain Text
Продолжительность : 41 м. 32 с.
Битрейт : 0 бит/сек
Count of elements : 4
Размер потока : 144 байт (0%)
Заголовок : Forced
Язык : Russian
Default : Да
Forced : Нет
Текст #2
Идентификатор : 4
Формат : UTF-8
Идентификатор кодека : S_TEXT/UTF8
Идентификатор кодека/Информация : UTF-8 Plain Text
Продолжительность : 41 м. 32 с.
Битрейт : 66 бит/сек
Count of elements : 364
Размер потока : 20,1 Кбайт (0%)
Язык : Russian
Default : Нет
Forced : Нет
Текст #3
Идентификатор : 5
Формат : UTF-8
Идентификатор кодека : S_TEXT/UTF8
Идентификатор кодека/Информация : UTF-8 Plain Text
Продолжительность : 41 м. 22 с.
Битрейт : 63 бит/сек
Count of elements : 686
Размер потока : 19,3 Кбайт (0%)
Заголовок : SDH
Язык : English
Default : Нет
Forced : Нет

Список серий:

1 Сезон:
1. Добро пожаловать в игру / Welcome to the Playground
2. Некоторые тайны лучше оставить в покое / Some Mysteries Are Better Left Unsolved
3. Без насилия не будет перемен / The Base Violence Necessary for Change
4. С Днём Прогресса! / Happy Progress Day!
5. Каждый хочет стать мне врагом / Everybody Wants to Be My Enemy
6. Когда эти стены рушатся / When These Walls Come Tumbling Down
7. Мальчик-спаситель / The Boy Savior
8. Масло и вода / Oil and Water
9. Монстр, созданный тобой / The Monster You Created
-Скриншоты:


Смотреть онлайн

[trackeroc.org].33852.torrent  Магнет ссылка
Torrent: Registered   [ 2021-11-24 03:37 ]

Скачать торрент

37 KB

Status: checked
Completed: 57 times
Size: 7.13 GB
 

trackeroc.info (24-ноя-21)

Similar torrent
Forum Topic Author Size
Песочницы, Sandbox Arcane Worlds v0.46 (2018) (ENG) Early Access trackeroc.info 43 MB
Сasual games, Тайм менеджмент Arcane Arts Academy (2020) (ENG) trackeroc.org 191 MB
RPG, ролевые игры Seed Of The Arcane , Episode 1 (2017) (ENG) early access trackeroc.info 2.64 GB
Strategy, Стратегии Warhammer: Arcane Magic (2016) [ENG][MULTi5][L] by PLAZA max+100600 789 MB
[Profile] [PM]
Display posts from previous:    
Reply to topic

The time now is: Today 08:38

All times are GMT + 4 Hours



You cannot post new topics in this forum
You cannot reply to topics in this forum
You cannot edit your posts in this forum
You cannot delete your posts in this forum
You cannot vote in polls in this forum
You cannot attach files in this forum
You can download files in this forum