Звёздная принцесса и силы зла / Стар против Сил Зла / Star vs. the Forces of Evil (2017) WEB-DL (сезон 4, серии 1-21 из 21) Кириллица скачать торрент

Reply to topic

DL-List and Torrent activity [Update пиров]
Size:  8.07 GB   |    Registered:  9 days   |    Completed:  0 times
Seeders:  5  [  249 KB/s  ]   Leechers:  1  [  150 KB/s  ]   Show peers in full details
 
 
 
 
Author Message

BiOS ®

Longevity: 5 years 4 months

Posts: 2279

Location: East Siberia


Post 09-Sep-2019 01:32

[Quote]

Звёздная принцесса и силы зла / Стар против Сил Зла / Star vs. the Forces of Evil
«In 2015. Star Butterfly will come to Earth and change the lives of the Diaz family forever!»
- Производство: США / Daron Nefcy Productions, Disney XD, Walt Disney Television Animation
Жанр: мультфильм, фантастика, фэнтези, комедия, приключения, семейный
Режиссер: Аарон Хэммерсли, Пьеро Пилузо, Дэвид Вассон
Актеры: Иден Шер - Star Butterfly, Адам МакАртур - Marco Diaz, Грэй Гриффин - Queen Butterfly, Алан Тьюдик - Ludo и др.
Описание:
История о девочке, живущей в ином измерении, по имени Стар Баттерфляй, которая получила в 14 лет волшебную палочку. Но после того, как Стар чуть ли не превратила свой родной город в прах, родители отправили её в другое измерение, которое называется Земля, чтобы жить с семьёй Диаз, которая состоит из добродушных родителей и подростка по имени Марко. Все одноклассники и друзья считают его тихоней, который остерегается даже обыкновенного падения. Марко считает это неправдой, и из-за такой репутации подросток жаждет приключений и опасностей.

Продолжительность: ~ 00:22:00 серия
Качество видео: WEB-DL
Перевод: Дублированный, профессиональный - Кириллица
Видео: AVC/H.264, 1920x1080 (16:9), ~2 014 kbps
Аудио Rus: AC3, 48,0 kHz, 2 ch, 192 kbps - дублированный
Аудио Eng: E-AC3, 48,0 kHz, 2 ch, 224 kbps - оригинал
Субтитры: Русские, Английские, Отключаемые

MediaInfo

General
Format : Matroska
Format version : Version 4
File size : 393 MiB
Duration : 22 min 36 s
Overall bit rate : 2 434 kb/s
Movie name : SVTFOE S4 E01 Vol.6
Encoded date : UTC 2019-08-06 15:42:58
Writing application : mkvmerge v35.0.0 ('All The Love In The World') 64-bit
Writing library : libebml v1.3.9 + libmatroska v1.5.2
Cover : Yes
Attachments : cover.jpg
Video
ID : 1
Format : AVC
Format/Info : Advanced Video Codec
Format profile : [email protected]
Format settings : CABAC / 4 Ref Frames
Format settings, CABAC : Yes
Format settings, Reference : 4 frames
Codec ID : V_MPEG4/ISO/AVC
Duration : 22 min 36 s
Bit rate : 2 014 kb/s
Width : 1 920 pixels
Height : 1 080 pixels
Display aspect ratio : 16:9
Frame rate mode : Constant
Frame rate : 23.976 (24000/1001) FPS
Color space : YUV
Chroma subsampling : 4:2:0
Bit depth : 8 bits
Scan type : Progressive
Bits/(Pixel*Frame) : 0.041
Stream size : 326 MiB (83%)
Title : by WORTEXSON
Language : English
Default : Yes
Forced : No
Color range : Limited
Color primaries : BT.709
Transfer characteristics : BT.709
Matrix coefficients : BT.709
Audio #1
ID : 2
Format : AC-3
Format/Info : Audio Coding 3
Commercial name : Dolby Digital
Codec ID : A_AC3
Duration : 22 min 36 s
Bit rate mode : Constant
Bit rate : 192 kb/s
Channel(s) : 2 channels
Channel layout : L R
Sampling rate : 48.0 kHz
Frame rate : 31.250 FPS (1536 SPF)
Bit depth : 16 bits
Compression mode : Lossy
Stream size : 31.0 MiB (8%)
Title : rus : ac-3 : 2.0 : 192 kb/s
Language : Russian
Service kind : Complete Main
Default : Yes
Forced : No
Audio #2
ID : 3
Format : E-AC-3
Format/Info : Enhanced AC-3
Commercial name : Dolby Digital Plus
Codec ID : A_EAC3
Duration : 22 min 36 s
Bit rate mode : Constant
Bit rate : 224 kb/s
Channel(s) : 2 channels
Channel layout : L R
Sampling rate : 48.0 kHz
Frame rate : 31.250 FPS (1536 SPF)
Compression mode : Lossy
Stream size : 36.2 MiB (9%)
Title : eng : eac-3 : 2.0 : 224 kb/s
Language : English
Service kind : Complete Main
Default : No
Forced : No
Text #1
ID : 4
Format : UTF-8
Codec ID : S_TEXT/UTF8
Codec ID/Info : UTF-8 Plain Text
Duration : 3 min 49 s
Bit rate : 19 b/s
Count of elements : 9
Stream size : 571 Bytes (0%)
Title : rus : force
Language : Russian
Default : Yes
Forced : Yes
Text #2
ID : 5
Format : UTF-8
Codec ID : S_TEXT/UTF8
Codec ID/Info : UTF-8 Plain Text
Duration : 21 min 16 s
Bit rate : 138 b/s
Count of elements : 469
Stream size : 21.6 KiB (0%)
Title : rus : sub
Language : Russian
Default : No
Forced : No
Text #3
ID : 6
Format : UTF-8
Codec ID : S_TEXT/UTF8
Codec ID/Info : UTF-8 Plain Text
Duration : 22 min 34 s
Bit rate : 100 b/s
Count of elements : 606
Stream size : 16.6 KiB (0%)
Title : eng : sub
Language : English
Default : No
Forced : No

Список серий

01. Butterfly Follies
02. Escape from the Pie Folk
03. Moon Remembers/Swim Suit
04. Ransomgram/Lake House Fever
05. Yada Yad Berries/Down by the River
06. The Ponyhead Show/Surviving the Spider Bites
07. Out of Business/Kellys World
08. Curse of the Blood Moon
09. Princess Quasar/Caterpillar and the Magic Bell
10. Cornball/Meteoras Lesson
11. The Knight Shift/Queen-Napped
12. Junkin Janna/A Spell with No Name
13. A Boy and His DC-700XE/The Monster and the Queen
14. Cornonation
15. Doop-Doop/Brittas Tacos
16. Beach Day/Gone Baby Gone
17. Sad Teen Hotline/Jannanigans
18. Mama Star/Ready, Aim, Fire
19.The Right Way/Here to Help
20. Pizza Party/The Tavern at the End of the Multiverse
21. Cleaved
-Скриншоты:


Смотреть онлайн


[trackeroc.org].29070.torrent 
Torrent: Registered   [ 2019-09-09 01:32 ]

Скачать торрент

24 KB

Status: checked
Completed: 20 times
Size: 8.07 GB
 

Angel (09-сен-19), Admin (09-сен-19)
Similar torrent
Forum Topic Author Size
Зарубежные Мультсериалы Звёздная принцесса и силы зла / Стар против Сил Зла / Star vs. the Forces of Evil (2016) WEB-DL (сезон 2, серии 1-22 из 22) Кириллица BiOS 18.39 GB
Зарубежные Мультсериалы Звёздная принцесса и силы зла / Стар против Сил Зла / Star vs. the Forces of Evil (2015) WEB-DL (сезон 1, серии 1-13 из 13) Кириллица BiOS 11.37 GB
Зарубежные Мультсериалы Звёздная принцесса и силы зла / Стар против Сил Зла / Star vs. the Forces of Evil (2017) WEB-DL (сезон 3, серии 1-21 из 21) Кириллица BiOS 17.99 GB
Квесты, я ищу, Поиск предметов, Hidden Object Princess Isabella 3: The Rise of an Heir. Collector's Edition / Принцесса Изабелла 3. Путь наследницы. [P] [RUS / ENG] (2013) HOPE 504 MB

_________________
[Profile] [PM]
Display posts from previous:    
Reply to topic

The time now is: Today 01:37

All times are GMT + 4 Hours



You cannot post new topics in this forum
You cannot reply to topics in this forum
You cannot edit your posts in this forum
You cannot delete your posts in this forum
You cannot vote in polls in this forum
You cannot attach files in this forum
You can download files in this forum