Восьмое чувство / Sense8 (2016-2018) WEBRip (1-2 сезон+Спецвыпуск) NewStudio скачать торрент

Reply to topic

DL-List and Torrent activity [Update пиров]
Size:  18.45 GB   |    Registered:  20 days   |    Completed:  0 times
Seeders:  7  [  236 KB/s  ]   Leechers:  1  [  3 MB/s  ]   Show peers in full details
 
 
 
 
Author Message

BiOS ®

Longevity: 5 years 5 months

Posts: 2336

Location: East Siberia


Post 25-Sep-2019 05:41

[Quote]

Восьмое чувство / Sense8
«I am we»
- Производство: США, Georgeville Television, Studio JMS, NetFlix
Жанр: Фантастика, триллер, драма, детектив
Режиссер: Дэн Гласс, Энди Вачовски, Лана Вачовски, Джеймс МакТиг, Том Тыквер
Актеры: Джеми Клейтон, Макс Римельт, Анупам Кхер, Джеронимо Бест, Ари Брикман, Сара Сон, Фрима Аджьеман, Амл Амин, Навин Эндрюс, Ду На Пэ и др.
Описание:
Сюжет фантастического сериала «Восьмое чувство» разворачивается вокруг восьми незнакомцев. Они живут в разных городах мира, принадлежат к разным религиям, и даже никогда не встречались. Но однажды происходит то, что очень сильно связывает их между собой. Внезапно для самих себя, герои начинают видеть друг друга, несмотря на то, что их разделяют тысячи километров. Сначала они не понимают, что происходит, и принимают свои видения за обыкновенные галлюцинации. Но со временем эти люди начинают понимать, что на самом деле они не сошли с ума, и связаны неизвестной силой, благодаря которой могут общаться в своем собственном мире, который не виден окружающим. Однажды появляется человек по имени Джонас, который помогает главным героям не только научиться пользоваться новым даром, но и объединиться, чтобы выжить

Продолжительность: ~ 00:55:00 х ~ 02:31:00
Качество видео: WEBRip
Перевод: Профессиональный (многоголосый, закадровый) - NewStudio
Видео: Xvid, 720x400, ~1500 kbps, 0.28 bit/pixel
Аудио #1: MP3, 2 ch, 48 kHz, ~128.00 kbps | Русский
Аудио #2: MP3, 2 ch, 48 kHz, ~128.00 kbps | Английский

MediaInfo:

General
Complete name : Sense8.s01e02.NewStudio.avi
Format : AVI
Format/Info : Audio Video Interleave
File size : 698 MiB
Duration : 54mn 8s
Overall bit rate : 1 803 Kbps
Writing application : VirtualDubMod 1.5.10.2 (build 2540/release)
Writing library : VirtualDubMod build 2540/release
Video #0
ID : 0
Format : MPEG-4 Visual
Format profile : Advanced [email protected]
Format settings, BVOP : No
Format settings, QPel : No
Format settings, GMC : No warppoints
Format settings, Matrix : Default (H.263)
Codec ID : XVID
Codec ID/Hint : XviD
Duration : 54mn 8s
Bit rate : 1 533 Kbps
Width : 720 pixels
Height : 400 pixels
Display aspect ratio : 16:9
Frame rate : 23.976 fps
Color space : YUV
Chroma subsampling : 4:2:0
Bit depth : 8 bits
Scan type : Progressive
Compression mode : Lossy
Bits/(Pixel*Frame) : 0.222
Stream size : 594 MiB (85%)
Writing library : XviD 73
Audio #1
ID : 1
Format : MPEG Audio
Format version : Version 1
Format profile : Layer 3
Mode : Joint stereo
Mode extension : MS Stereo
Codec ID : 55
Codec ID/Hint : MP3
Duration : 54mn 8s
Bit rate mode : Constant
Bit rate : 128 Kbps
Channel(s) : 2 channels
Sampling rate : 48.0 KHz
Compression mode : Lossy
Stream size : 49.6 MiB (7%)
Alignment : Aligned on interleaves
Interleave, duration : 42 ms (1.00 video frame)
Interleave, preload duration : 504 ms
Audio #2
ID : 2
Format : MPEG Audio
Format version : Version 1
Format profile : Layer 3
Mode : Joint stereo
Mode extension : MS Stereo
Codec ID : 55
Codec ID/Hint : MP3
Duration : 54mn 8s
Bit rate mode : Constant
Bit rate : 128 Kbps
Channel(s) : 2 channels
Sampling rate : 48.0 KHz
Compression mode : Lossy
Stream size : 49.6 MiB (7%)
Alignment : Aligned on interleaves
Interleave, duration : 42 ms (1.00 video frame)
Interleave, preload duration : 504 ms
-Скриншоты:


Смотреть онлайн


[trackeroc.org].29221.torrent 
 SILVER TORRENT! DOWNLOAD TRAFFIC PARTIALLY CONSIDERED! 
Torrent: Registered   [ 2019-09-25 05:41 ]

Скачать торрент

94 KB

Status: checked
Completed: 13 times
Size: 18.45 GB
 

Admin (25-сен-19), Angel (27-сен-19)
Similar torrent
Forum Topic Author Size
Зарубежные сериалы Восьмое чувство / Sense8 (2017) WEBRip [H.264/1080p] (сезон 2, серии 1-10 из 10) OMSKBIRD BiOS 41 GB
Зарубежные сериалы Восьмое чувство / Sense8 (2015) WEBRip [H.264/720p] (сезон 1, серии 1-12 из 12) OMSKBIRD BiOS 20.12 GB
Ужасы ,мистика ,триллеры Тёмное чувство / Dark Sense (2019) WEB-DLRip [MVO] [AD] BiOS 1.31 GB

_________________
[Profile] [PM]
Display posts from previous:    
Reply to topic

The time now is: Today 13:59

All times are GMT + 4 Hours



You cannot post new topics in this forum
You cannot reply to topics in this forum
You cannot edit your posts in this forum
You cannot delete your posts in this forum
You cannot vote in polls in this forum
You cannot attach files in this forum
You can download files in this forum