Восьмое чувство / Sense8 (2015) WEBRip [H.264/720p] (сезон 1, серии 1-12 из 12) OMSKBIRD скачать торрент

Reply to topic

DL-List and Torrent activity [Update пиров]
Size:  20.12 GB   |    Registered:  20 days   |    Completed:  0 times

Seeder not seen: Never

Leechers:  1  [  0 KB/s  ]   Show peers in full details
 
 
 
 
 
Author Message

BiOS ®

Longevity: 5 years 5 months

Posts: 2336

Location: East Siberia


Post 01-Nov-2016 20:04

[Quote]

Восьмое чувство / Sense8
«Я - МЫ»
- Производство: США, Georgeville Television, Studio JMS, NetFlix
Жанр: Фантастика, триллер, драма, детектив
Режиссер: Дэн Гласс, Энди Вачовски, Лана Вачовски, Джеймс МакТиг, Том Тыквер
Актеры: Джеми Клейтон, Макс Римельт, Анупам Кхер, Джеронимо Бест, Ари Брикман, Сара Сон, Фрима Аджьеман, Амл Амин, Навин Эндрюс, Ду На Пэ и др.
Описание:
Группа людей из разных точек мира неожиданно оказываются ментально связанными, теперь им придется найти способ, чтобы выжить, потому что за ними начинают охотиться те, кто видит в них угрозу для этого мира…

Дата мировой премьеры: 5 июня 2015
Продолжительность: ~ 00:55:00 серия
Качество видео: WEBRip 720p
Перевод: Двуголосый закадровый, профессиональный | OMSKBIRD
Видео: AVC/H.264, 1280x720, ~4057 Kbps
Аудио # 1: AC3, 6 ch, 384 kbps - двуголосый закадровый
Аудио # 2: AC3, 6 ch, 384 kbps - оригинал

Mediainfo:

Код:
Общее
Уникальный идентификатор                 : 254278376843236154023855162495064608179 (0xBF4C3BE88E11B0808F5A6B5881CC0DB3)
Полное имя                               : Sense8.S01E01.720p.WEBRip.Rus.Eng.OmskBird.mkv
Формат                                   : Matroska
Версия формата                           : Version 4 / Version 2
Размер файла                             : 2,29 Гбайт
Продолжительность                        : 1 ч. 6 м.
Общий поток                              : 4923 Кбит/сек
Дата кодирования                         : UTC 2015-06-06 06:44:38
Программа кодирования                    : mkvmerge v7.9.0 ('Birds') 64bit
Библиотека кодирования                   : libebml v1.3.1 + libmatroska v1.4.2
DURATION                                 : 01:06:34.432000000
NUMBER_OF_FRAMES                         : 124826
NUMBER_OF_BYTES                          : 191732736
_STATISTICS_WRITING_APP                  : mkvmerge v7.9.0 ('Birds') 64bit
_STATISTICS_WRITING_DATE_UTC             : 2015-06-06 06:44:38
_STATISTICS_TAGS                         : BPS DURATION NUMBER_OF_FRAMES NUMBER_OF_BYTES
Видео
Идентификатор                            : 1
Формат                                   : AVC
Формат/Информация                        : Advanced Video Codec
Профиль формата                          : [email protected]
Параметр CABAC формата                   : Да
Параметр ReFrames формата                : 9 кадров
Идентификатор кодека                     : V_MPEG4/ISO/AVC
Продолжительность                        : 1 ч. 6 м.
Битрейт                                  : 4057 Кбит/сек
Ширина                                   : 1280 пикселей
Высота                                   : 720 пикселей
Соотношение сторон                       : 16:9
Режим частоты кадров                     : Постоянный
Частота кадров                           : 23,976 кадра/сек
Цветовое пространство                    : YUV
Субдискретизация насыщенности            : 4:2:0
Битовая глубина                          : 8 бит
Тип развёртки                            : Прогрессивная
Бит/(Пиксели*Кадры)                      : 0.184
Размер потока                            : 1,89 Гбайт (82%)
Библиотека кодирования                   : x264 core 146 r2538 121396c
Настройки программы                      : cabac=1 / ref=9 / deblock=1:-3:-3 / analyse=0x3:0x113 / me=umh / subme=10 / psy=1 / psy_rd=1.00:0.00 / mixed_ref=1 / me_range=24 / chroma_me=1 / trellis=2 / 8x8dct=1 / cqm=0 / deadzone=21,11 / fast_pskip=0 / chroma_qp_offset=-2 / threads=12 / lookahead_threads=2 / sliced_threads=0 / nr=0 / decimate=0 / interlaced=0 / bluray_compat=0 / constrained_intra=0 / bframes=5 / b_pyramid=2 / b_adapt=2 / b_bias=0 / direct=3 / weightb=1 / open_gop=0 / weightp=2 / keyint=250 / keyint_min=23 / scenecut=40 / intra_refresh=0 / rc=crf / mbtree=0 / crf=17.0 / qcomp=0.60 / qpmin=0 / qpmax=69 / qpstep=4 / ip_ratio=1.40 / pb_ratio=1.30 / aq=1:0.80
Язык                                     : English
Default                                  : Да
Forced                                   : Нет
Коэффициенты матрицы                     : BT.709
colour_range                             : Limited
Аудио #1
Идентификатор                            : 2
Формат                                   : AC-3
Формат/Информация                        : Audio Coding 3
Расширение режима                        : CM (complete main)
Параметр Endianness формата              : Big
Идентификатор кодека                     : A_AC3
Продолжительность                        : 1 ч. 6 м.
Вид битрейта                             : Постоянный
Битрейт                                  : 384 Кбит/сек
Каналы                                   : 6 каналов
Расположение каналов                     : Front: L C R, Side: L R, LFE
Частота                                  : 48,0 КГц
Битовая глубина                          : 16 бит
Метод сжатия                             : С потерями
Размер потока                            : 183 Мбайт (8%)
Заголовок                                : OmskBird 5.1
Язык                                     : Russian
Default                                  : Да
Forced                                   : Нет
Аудио #2
Идентификатор                            : 3
Формат                                   : AC-3
Формат/Информация                        : Audio Coding 3
Расширение режима                        : CM (complete main)
Параметр Endianness формата              : Big
Идентификатор кодека                     : A_AC3
Продолжительность                        : 1 ч. 6 м.
Вид битрейта                             : Постоянный
Битрейт                                  : 384 Кбит/сек
Каналы                                   : 6 каналов
Расположение каналов                     : Front: L C R, Side: L R, LFE
Частота                                  : 48,0 КГц
Битовая глубина                          : 16 бит
Метод сжатия                             : С потерями
Размер потока                            : 183 Мбайт (8%)
Заголовок                                : original 5.1
Язык                                     : English
Default                                  : Нет
Forced                                   : Нет

Подготовка релиза:

Релиз-группа: OmskBird
Релиз подготовил: Skyns61
Перевод: Лилия Кушнаренко и Никита Коваль
Роли озвучивали: Павел Ярощик, Ольга Федорова
Сборка, работа со звуком: Skyns61
-Скриншоты:


Смотреть онлайн


[trackeroc.org].16228.torrent 
Torrent: Registered   [ 2019-09-25 05:10 ]

Скачать торрент

52 KB

Status: checked
Completed: 73 times
Size: 20.12 GB
 

Similar torrent
Forum Topic Author Size
Зарубежные сериалы Восьмое чувство / Sense8 (2016-2018) WEBRip (1-2 сезон+Спецвыпуск) NewStudio BiOS 18.45 GB
Зарубежные сериалы Восьмое чувство / Sense8 (2017) WEBRip [H.264/1080p] (сезон 2, серии 1-10 из 10) OMSKBIRD BiOS 41 GB
Ужасы ,мистика ,триллеры Тёмное чувство / Dark Sense (2019) WEB-DLRip [MVO] [AD] BiOS 1.31 GB

_________________
[Profile] [PM]
Display posts from previous:    
Reply to topic

The time now is: Today 13:56

All times are GMT + 4 Hours



You cannot post new topics in this forum
You cannot reply to topics in this forum
You cannot edit your posts in this forum
You cannot delete your posts in this forum
You cannot vote in polls in this forum
You cannot attach files in this forum
You can download files in this forum