Видоизменённый углерод / Altered Carbon (2020) WEBRip (сезон 2, серии 1-8 из 8) HDRezka Studio скачать торрент

Reply to topic

DL-List and Torrent activity [Update пиров]
Size:  8.11 GB   |    Registered:  1 month 4 days   |    Completed:  2 times
Seeders:  7  [  67 KB/s  ]   Leechers:  1  [  1 MB/s  ]   Show peers in full details
 
 
 
 
Author Message

BiOS ®

Longevity: 5 years 11 months

Posts: 2427

Location: Earth


Post 29-Feb-2020 20:55

[Quote]

Видоизменённый углерод / Altered Carbon «No body lives forever»- Производство: США / Netflix, Virago Productions, Mythology Entertainment, Phoenix Pictures, Skydance Television
Жанр: фантастика, детектив, фильм-нуар, боевик
Режиссер: Ута Бризвитц, Алекс Грейвз, Питер Хор
Актеры: Юэль Киннаман, Крис Коннер, Рене Голдсберри, Джеймс Пьюрфой, Марта Игареда, Дичен Лакмэн, Ато Эссандо, Кристин Леман, Треу Трэн, Энтони Маки и др.
Описание:
Земля, XXVII век. Мир, в котором появилась возможность «сгружать» человеческое сознание и личность из одного тела в другое. Идеальный мир и для преступников, и для полицейских, и для армии, но вряд ли идеальный для бывшего военного спецназовца и бывшего повстанца Такеси Ковача, которого миллиардер Бэнкрофт нанял для расследования гибели одного из своих тел. Внешне — явное самоубийство, но Бэнкрофт считает себя неспособным на такой поступок, а воспоминания о последних минутах жизни уничтожены метким выстрелом в запоминающее устройство.

Продолжительность: ~00:48:00 серия
Качество видео: WEBRip
Перевод: Многоголосый профессиональный (HDRezka Studio)
Реклама: Присутствует реклама
Видео: AVC/H.264, 1280x720 (16:9), ~2530 Kbps
Аудио: AC3, 2 ch, 192 Kbps - русский

MediaInfo:

Общее
Уникальный идентификатор : 281082071288018653492725359659646090855 (0xD376701329A10FF92ED9CCB913EA7E67)
Полное имя : G:\Altered.Carbon.S02E01.WEBRip.720p.mkv
Формат : Matroska
Версия формата : Version 4
Размер файла : 863 Мбайт
Продолжительность : 44 м. 16 с.
Режим общего битрейта : Переменный
Общий поток : 2724 Кбит/сек
Дата кодирования : UTC 2020-02-28 15:05:39
Программа кодирования : mkvmerge v28.2.0 ('The Awakening') 64-bit
Библиотека кодирования : libebml v1.3.6 + libmatroska v1.4.9
Видео
Идентификатор : 1
Формат : AVC
Формат/Информация : Advanced Video Codec
Профиль формата : [email protected]
Настройки формата : CABAC / 1 Ref Frames
Параметр CABAC формата : Да
Параметр RefFrames формата : 1 кадр
Идентификатор кодека : V_MPEG4/ISO/AVC
Продолжительность : 44 м. 16 с.
Вид битрейта : Переменный
Битрейт : 2530 Кбит/сек
Максимальный битрейт : 2000 Кбит/сек
Ширина : 1280 пикселей
Высота : 720 пикселей
Соотношение сторон : 16:9
Режим частоты кадров : Постоянный
Частота кадров : 23,976 (24000/1001) кадра/сек
Цветовое пространство : YUV
Субдискретизация насыщенности : 4:2:0
Битовая глубина : 8 бит
Тип развёртки : Прогрессивная
Бит/(Пиксели*Кадры) : 0.115
Размер потока : 801 Мбайт (93%)
Default : Да
Forced : Нет
Аудио
Идентификатор : 2
Формат : AC-3
Формат/Информация : Audio Coding 3
Коммерческое название : Dolby Digital
Идентификатор кодека : A_AC3
Продолжительность : 44 м. 15 с.
Вид битрейта : Постоянный
Битрейт : 192 Кбит/сек
Каналы : 2 канала
ChannelLayout : L R
Частота : 48,0 КГц
Частота кадров : 31,250 кадров/сек (1536 SPF)
Метод сжатия : С потерями
Размер потока : 60,8 Мбайт (7%)
Язык : Russian
ServiceKind/String : Complete Main
Default : Да
Forced : Нет
Скриншоты:


Смотреть онлайн


[trackeroc.org].30025.torrent 
Torrent: Registered   [ 2020-02-29 20:55 ]

Скачать торрент

42 KB

Status: checked
Completed: 27 times
Size: 8.11 GB
 

Admin (05-мар-20)
Similar torrent
Forum Topic Author Size
Зарубежные сериалы Видоизмененный углерод / Altered Carbon (2018) WEBRip (сезон 1, серии 1-10 из 10) NewStudio Admin 6.49 GB

_________________


Last edited by BiOS on 2020-03-06 13:56; edited 1 time in total
[Profile] [PM]

asdf4es

Longevity: 4 years 6 months

Posts: 106


Post 01-Mar-2020 10:36 (after 13 hours)

[Quote]

указывайте пожалуйста наличие рекламы 
[Profile] [PM]

BiOS ®

Longevity: 5 years 11 months

Posts: 2427

Location: Earth


Post 06-Mar-2020 13:42 (after 5 days)

[Quote]

указывайте пожалуйста наличие рекламы
От куда взято и залито видео, данная инфа отсутствовала. За что взял за то и продаю. А то, что HDRezka себя любимую рекламирует это не для кого не секрет )))


_________________
[Profile] [PM]
Display posts from previous:    
Reply to topic

The time now is: Today 16:37

All times are GMT + 4 Hours



You cannot post new topics in this forum
You cannot reply to topics in this forum
You cannot edit your posts in this forum
You cannot delete your posts in this forum
You cannot vote in polls in this forum
You cannot attach files in this forum
You can download files in this forum