Полицейский с Рублёвки / Сезон: 3 / Серии: 1-8 из 8 скачать торрент

Ответить на тему

Статистика раздачи [Обновить пиров]
Размер:  5.07 GB   |    Зарегистрирован:  6 месяцев 21 день   |    Скачан:  1 раз

Полного источника не было: Никогда

 
 
 
 
 
Автор Сообщение

Admin ®

Стаж: 2 года 6 месяцев

Сообщений: 5794

Откуда: trackeroc.ru


Пост 16-Окт-2017 15:14

[Цитировать]

Полицейский с Рублёвки 3. Снова дома
Год выпуска: 2018
Производство: [font=serif1]LEGIO FELIX

Жанр: [font=serif1]комедия, криминал, драма

Продолжительность: ~00:48:00 [font=serif1]серия

Субтитры: нет
Режиссёр: [font=serif1]Илья Куликов
В ролях: Александр Петров, Сергей Бурунов, Роман Попов, Георгий Клинаев, Ирина Вилкова, Татьяна Бабенкова, Софья Каштанова, Ростислав Гулбис, Сергей Штатнов, Александра Бортич, Александр Дерепко, Светлана Суханова, Мария Безродная, Анна Котова, Велимир Русаков, Константин Быков
Описание: В третьей части сериала Гриша Измайлов с триумфом возвращается на Рублёвку в новой должности начальника родного отдела. Его радость разделяют все вернувшиеся домой коллеги. Все, кроме одного: бывший начальник Яковлев теперь всего лишь глава оперов. И готов на всё, лишь бы вернуть себе власть и сбросить гнёт ненавистного Измайлова.

Реклама: [font=serif1]Нет.
Кинопоиск
Sample
Качество: WEBRip - Files-x
Формат: AVI
Видео кодек: XviD
Аудио кодек: AC3
Видео: 720x336 (2.14:1), 25 fps, XviD build 73 ~1500 kbps avg, 0.253 bit/pixel
Аудио: 48.0 kHz, AC3 Dolby Digital, 2/0 (L,R) ch, ~ 192 kbps

Внимание! Раздача ведётся путём добавления новых серий

[font=sans1]Раздача ведётся путём добавления новых серий, при каждом добавлении создаётся новый торрент. Чтобы начать докачку новой серии, пользователям необходимо сделать следующее:
- Остановить скачивание.
- Удалить старый торрент у себя из клиента (старые серии удалять не надо).
- Скачать новый торрент и запустить его у себя в клиенте вместо старого, при этом указать клиенту путь в старую папку куда и должно происходить скачивание новых серий.
Ваш клиент при этом должен произвести хеширование (проверку) старой папки (если не производит сам - помогите ему сделать это), и будет докачивать только те серии которых у вас ещё нет. Старые серии при этом не удаляются, а продолжают раздаваться!
Если вы уже удалили старые серии, то предотвратить повторную закачку старых серий можно, отжав галочку в соответствующих местах при запуске нового торрента. По возможности, желательно не удалять старые серии как можно дольше, чтобы релизер не столько продолжал раздавать старые серии, а смог сконцентрироваться на новых.

MI

General
Complete name : D:\Policejskij.s.rubliovki.3.2018.WEBRip.Files-x\01.Policejskij.s.rubliovki.3.2018.WEBRip.Files-x.avi
Format : AVI
Format/Info : Audio Video Interleave
File size : 600 MiB
Duration : 48mn 22s
Overall bit rate : 1 735 Kbps
Writing application : VirtualDubMod 1.5.10.3 | www.virtualdub-fr.org || (build 2550/release)
Writing library : VirtualDubMod build 2550/release
Video
ID : 0
Format : MPEG-4 Visual
Format profile : Advanced Simple@L5
Format settings, BVOP : 1
Format settings, QPel : No
Format settings, GMC : No warppoints
Format settings, Matrix : Custom
Codec ID : XVID
Codec ID/Hint : XviD
Duration : 48mn 22s
Bit rate : 1 533 Kbps
Width : 720 pixels
Height : 336 pixels
Display aspect ratio : 2.143
Frame rate : 25.000 fps
Color space : YUV
Chroma subsampling : 4:2:0
Bit depth : 8 bits
Scan type : Progressive
Compression mode : Lossy
Bits/(Pixel*Frame) : 0.253
Stream size : 530 MiB (88%)
Writing library : XviD 73
Audio
ID : 1
Format : AC-3
Format/Info : Audio Coding 3
Mode extension : CM (complete main)
Format settings, Endianness : Big
Codec ID : 2000
Duration : 48mn 22s
Bit rate mode : Constant
Bit rate : 192 Kbps
Channel count : 2 channels
Channel positions : Front: L R
Sampling rate : 48.0 KHz
Bit depth : 16 bits
Compression mode : Lossy
Stream size : 66.4 MiB (11%)
Alignment : Split accross interleaves
Interleave, duration : 40 ms (1.00 video frame)
Interleave, preload duration : 500 ms

Скриншоты




Смотреть онлайн

[trackeroc.ru].14374.torrent 
Торрент: Зарегистрирован   [ 2018-04-29 22:17 ]

Скачать торрент

26 KB

Статус: проверено
Скачан: 50 раз
Размер: 5.07 GB
 

Похожие торренты
Форум Тема Автор Размер
Зарубежные сериалы Плохой хороший полицейский / Bad Cop: Kriminell gut [сезон 1 серии 1-8 из 10] (2017) Admin 5.55 GB
Комедии Плохой хороший полицейский 2 / Bon Cop Bad Cop 2 (2017) WEB-DLRip Admin 2.03 GB
Комедии Детсадовский полицейский 2 / Kindergarten Cop 2 (2016) HDRip Admin 1.46 GB
Фантастика Фэнтези Космический полицейский / Space Cop (2016) WEB-DLRip Admin 1.37 GB

_________________
[Профиль] [ЛС]
Показать сообщения:    
Ответить на тему

Текущее время: Сегодня 16:13

Часовой пояс: GMT + 4



Вы не можете начинать темы
Вы не можете отвечать на сообщения
Вы не можете редактировать свои сообщения
Вы не можете удалять свои сообщения
Вы не можете голосовать в опросах
Вы не можете прикреплять файлы к сообщениям
Вы можете скачивать файлы