В объезд / Та еще поездочка / The Detour / Сезон: 4 / Серии: 1-8 из 10 скачать торрент

Reply to topic

DL-List and Torrent activity [Update пиров]
Size:  1.93 GB   |    Registered:  4 days   |    Completed:  0 times

Seeder not seen: Never

 
 
 
 
 
Author Message

Admin ®

Longevity: 5 years 3 months

Posts: 8533

Location: Скачать торрент


Post 29-Jul-2019 16:03

[Quote]

-В объезд | Та еще поездочка | The Detour-- Год выпуска: 2019
Страна: США
Жанр: Комедия, приключения
Продолжительность: ~ 00:20:00-Перевод: Профессиональный (многоголосый закадровый) | Jaskier-Режиссёр: Джефф Томсич, Стив Пинк, Бреннан Шрофф-В ролях: Джейсон Джонс, Натали Зи, Эшли Герасимович, Лайам Кэрролл, Мэри Грилл, Даниэлла Пинеда, Фил Ривз, Дэрин Купер, Деджа Ди, Тейлор Ковальски, Винс Фостер, Денитра Ислер, Адам Бойер, Том Амандес и др.-Описание: Главные герои проживали во Флориде. У них двое детей. Однако скучная рутинная жизнь им надоела, поэтому герои решили отправиться в большое путешествие! Путь непростой, но герои всегда оптимистичны - они верят в себя, а их путь благоволит им. Кажется, что впереди их ждет долгая дорога, полная интересных открытий. Герои воодушевлены дорогой, однако вскоре они понимают, что проблем в пути будет куда больше, чем положительных моментов!- -Качество: WEB-DLRip
Формат: AVI
Видео: XviD, ~ 1400 kbps, 720x400 (16:9), 23.976 fps
Аудио 1: MP3, 48,0 КГц, 2 ch, 128 kbps - Rus
Аудио 2: MP3, 48,0 КГц, 2 ch, 128 kbps - Eng
Субтитры: отсутствуют-Реклама: Присутствует звуковая (два раза в начале и конце по 10 сек.)-

Релиз

Переведено и озвучено: студией Jaskier

MediaInfo

Код:
Общее
Полное имя                               : H:\JASKiER\The Detour. Season 4 (WEB-DLRip l 400p l Jaskier)\The.Detour.S04E01.WEB-DLRip.Rus.Eng.Jaskier.avi
Формат                                   : AVI
Формат/Информация                        : Audio Video Interleave
Размер файла                             : 261 Мбайт
Продолжительность                        : 21 м. 53 с.
Общий поток                              : 1670 Кбит/сек
Программа кодирования                    : VirtualDubMod 1.5.10.3 | www.virtualdub-fr.org || (build 2550/release)
Библиотека кодирования                   : VirtualDubMod build 2550/release
Видео
Идентификатор                            : 0
Формат                                   : MPEG-4 Visual
Профиль формата                          : Advanced [email protected]
Настройки формата                        : BVOP1 / Custom Matrix
Параметр BVOP формата                    : 1
Параметр QPel формата                    : Нет
Параметр GMC формата                     : Без точки перехода
Параметр матрицы формата                 : Выборочная
Идентификатор кодека                     : XVID
Идентификатор кодека/Подсказка           : XviD
Продолжительность                        : 21 м. 53 с.
Битрейт                                  : 1400 Кбит/сек
Ширина                                   : 720 пикселей
Высота                                   : 400 пикселей
Соотношение сторон                       : 16:9
Частота кадров                           : 23,976 (24000/1001) кадра/сек
Цветовое пространство                    : YUV
Субдискретизация насыщенности            : 4:2:0
Битовая глубина                          : 8 бит
Тип развёртки                            : Прогрессивная
Метод сжатия                             : С потерями
Бит/(Пиксели*Кадры)                      : 0.203
Размер потока                            : 219 Мбайт (84%)
Библиотека кодирования                   : XviD 73
Аудио #1
Идентификатор                            : 1
Формат                                   : MPEG Audio
Версия формата                           : Version 1
Профиль формата                          : Layer 3
Настройки формата                        : Joint stereo / MS Stereo
Идентификатор кодека                     : 55
Идентификатор кодека/Подсказка           : MP3
Продолжительность                        : 21 м. 53 с.
Вид битрейта                             : Постоянный
Битрейт                                  : 128 Кбит/сек
Каналы                                   : 2 канала
Частота                                  : 48,0 КГц
Метод сжатия                             : С потерями
Размер потока                            : 20,0 Мбайт (8%)
Выравнивание                             : Соединение по промежуткам
Продолжительность промежутка             : 42  мс. (1,00 видеокадр)
Время предзагрузки промежутка            : 504  мс.
Аудио #2
Идентификатор                            : 2
Формат                                   : MPEG Audio
Версия формата                           : Version 1
Профиль формата                          : Layer 3
Настройки формата                        : Joint stereo / MS Stereo
Идентификатор кодека                     : 55
Идентификатор кодека/Подсказка           : MP3
Продолжительность                        : 21 м. 53 с.
Вид битрейта                             : Постоянный
Битрейт                                  : 128 Кбит/сек
Каналы                                   : 2 канала
Частота                                  : 48,0 КГц
Метод сжатия                             : С потерями
Размер потока                            : 20,0 Мбайт (8%)
Выравнивание                             : Соединение по промежуткам
Продолжительность промежутка             : 42  мс. (1,00 видеокадр)
Время предзагрузки промежутка            : 504  мс.

Скриншоты

Раздача ведется путем добавления новых серий

Когда раздача ведётся путём добавления новых серий, при каждом добавлении создётся новый торрент. Чтобы начать докачку новой серии, пользователям необходимо сделать следующее:
(1) остановить скачивание,
(2) удалить старый торрент у себя из клиента (старые серии удалять не надо),
(3) скачать новый торрент и запустить его у себя в клиенте вместо старого, при этом указать клиенту путь в старую папку, куда и должно происходить скачивание новых серий.
Ваш клиент при этом должен произвести хеширование (проверку) старой папки (если не производит сам - помогите ему сделать это), и будет докачивать только те серии, которых у вас ещё нет. Старые серии при этом не удаляются, а продолжают раздаваться!
Eсли вы уже удалили старые серии, то предотвратить повторную закачку старых серий можно, отжав галочку в соответсвующих местах при запуске нового торрента. По возможности, желательно не удалять старые серии как можно дольше, чтобы релизёр не столько продолжал раздавать старые серии, а смог сконцентрироваться на новых.
-


Смотреть онлайн


[trackeroc.org].28694.torrent 
Torrent: Registered   [ 2019-08-14 13:46 ]

Скачать торрент

156 KB

Status: * not checked
Completed: 11 times
Size: 1.93 GB
 

Similar torrent
Forum Topic Author Size
Зарубежные сериалы В объезд / Та ещё поездка / Поехавшие / The Detour (2018) WEBRip (сезон 3, серии 1-10 из 10) Admin 2.45 GB
Зарубежные сериалы В объезд / Та ещё поездка / Поехавшие / The Detour (2016) WEBRip (сезон 1, серии 1-10 из 10) Jaskier Admin 2.26 GB
Зарубежные сериалы В объезд / Та ещё поездка / Поехавшие / The Detour (2017) WEBRip (сезон 2, серии 1-12 из 12) Jaskier Admin 3.13 GB

_________________
[Profile] [PM]
Display posts from previous:    
Reply to topic

The time now is: Today 22:06

All times are GMT + 4 Hours



You cannot post new topics in this forum
You cannot reply to topics in this forum
You cannot edit your posts in this forum
You cannot delete your posts in this forum
You cannot vote in polls in this forum
You cannot attach files in this forum
You can download files in this forum