Налетчики / Marauders (2016) WEB-DLRip скачать торрент

Reply to topic

DL-List and Torrent activity [Update пиров]
Size:  1.37 GB   |    Registered:  3 years 1 month   |    Completed:  8 times
Seeders:  668  [  0 KB/s  ]   Leechers:  395  [  0 KB/s  ]   Show peers in full details
 
 
 
 
Author Message

Admin ®

Longevity: 5 years 4 months

Posts: 8546

Location: Скачать торрент


Post 06-Jul-2016 12:10

[Quote]

Налетчики / Marauders - Производство: Канада, 4th Wall Entertainment, Emmett/Furla Films, Grindstone Entertainment Group, Lionsgate Home Entertainment
Жанр: Боевик
Режиссер: Стивен С. Миллер
Актеры: Брюс Уиллис, Кристофер Мелони, Дэйв Батиста, Эдриан Гренье, Лидия Халл, Тайлер Джон Олсон, Кристофер Роб Бауэн, Chris Hill, Дэнни А. Абекейзер, Тексас Бэттл
Описание:
История об агенте ФБР, который нападает на след преступников, ограбивших банк и отдавших все украденные деньги на благотворительные нужды. Чем дальше продвигается расследование, тем больше главный герой убеждается в том, что у владельца банка имеются собственные секреты.
Рейтинг MPAA: R (лицам до 17 лет обязательно присутствие взрослого)
Премьера (мир): 1 июля 2016, ...
Премьера (РФ): 11 августа 2016, «MEGOGO Distribution»

Продолжительность: 01:47:07
Качество видео: WEB-DLRip
Озвучивание: Любительское (многоголосое) [Parovoz Production]
Формат: AVI (XviD)
Качество: WEB-DLRip
Видео: 1424 kb/s, 720x304
Аудио: AC3, 384 kb/s (6 ch)

Mediainfo:

Код:
Format                         : AVI
Format/Info                    : Audio Video Interleave
File size                      : 1.37 GiB
Duration                       : 1 h 47 min
Overall bit rate               : 1 827 kb/s
Writing application            : VirtualDubMod 1.5.10.2 (build 2540/release)
Writing library                : VirtualDubMod build 2540/release
Video
ID                             : 0
Format                         : MPEG-4 Visual
Format profile                 : Advanced [email protected]
Format settings, BVOP          : 2
Format settings, QPel          : No
Format settings, GMC           : No warppoints
Format settings, Matrix        : Custom
Codec ID                       : XVID
Codec ID/Hint                  : XviD
Duration                       : 1 h 47 min
Bit rate                       : 1 370 kb/s
Width                          : 720 pixels
Height                         : 304 pixels
Display aspect ratio           : 2.35:1
Frame rate                     : 23.976 (24000/1001) FPS
Color space                    : YUV
Chroma subsampling             : 4:2:0
Bit depth                      : 8 bits
Scan type                      : Progressive
Compression mode               : Lossy
Bits/(Pixel*Frame)             : 0.261
Stream size                    : 1.02 GiB (75%)
Writing library                : XviD 1.2.1 (UTC 2008-12-04)
Audio
ID                             : 1
Format                         : AC-3
Format/Info                    : Audio Coding 3
Mode extension                 : CM (complete main)
Format settings, Endianness    : Big
Codec ID                       : 2000
Duration                       : 1 h 47 min
Bit rate mode                  : Constant
Bit rate                       : 448 kb/s
Channel(s)                     : 6 channels
Channel positions              : Front: L C R, Side: L R, LFE
Sampling rate                  : 48.0 kHz
Frame rate                     : 31.250 FPS (1536 spf)
Compression mode               : Lossy
Stream size                    : 343 MiB (25%)
Alignment                      : Split accross interleaves
Interleave, duration           : 42  ms (1.00 video frame)
Interleave, preload duration   : 500  ms
-Скриншоты:


Смотреть онлайн


[trackeroc.ru].13661.torrent 
Torrent: Registered   [ 2016-07-06 12:10 ]

Скачать торрент

14 KB

Status: checked
Completed: 100 times
Size: 1.37 GB
 

burch (08-июл-16)
Similar torrent
Forum Topic Author Size
Боевики Налетчики / Marauders (2016) HDRip [H.264] [MP4|1024x428] BiOS 1.87 GB

_________________
[Profile] [PM]
Display posts from previous:    
Reply to topic

The time now is: Today 13:27

All times are GMT + 4 Hours



You cannot post new topics in this forum
You cannot reply to topics in this forum
You cannot edit your posts in this forum
You cannot delete your posts in this forum
You cannot vote in polls in this forum
You cannot attach files in this forum
You can download files in this forum