Тёмный кристалл / The Dark Crystal (1982) [720p] BDRip скачать торрент

Reply to topic

DL-List and Torrent activity [Update пиров]
Size:  4.66 GB   |    Registered:  2 months 4 days   |    Completed:  0 times
Seeders:  6  [  0 KB/s  ]   Leechers:  1  [  2 MB/s  ]   Show peers in full details
 
 
 
 
Author Message

BiOS ®

Longevity: 5 years 7 months

Posts: 2374

Location: Earth


Post 07-Oct-2019 21:04

[Quote]

Темный кристалл / The Dark Crystal
«When evil screams throughout the world, when all three suns converge, when all that's fair and fine seems lost... a hero will emerge!»
- Производство: США, Великобритания / Henson Organisation, Incorporated Television Company (ITC), Jim Henson Productions
Жанр: фэнтези, приключения, семейный
Режиссер: Джим Хенсон, Фрэнк Оз, Гари Кертц
Актеры: Джим Хенсон, Кэтрин Маллен, Фрэнк Оз, Дэйв Гольц, Стив Уитмир, Луиз Голд, Брайан Мюэль, Боб Пэйн, Майк Куинн, Тимоти М. Роуз и др.
Описание:
Веками в волшебной стране, которую населял народ гелфлингов, царил мир и покой. Но однажды произошла страшная беда: был поврежден Темный кристалл, магический камень, управляющий законами Вселенной. Из-за этого нарушилось равновесие хаоса и порядка, а бедных человекообразных гелфлингов поработили воинственные, злобные ящеры скексисы.
Если Темный кристалл не починить до дня Великого слияния трех солнц, кошмарные скексисы будут вечно править миром. И тогда храбрые гелфлинги Джен и Кира отправляютсяна полные опасностей и приключений поиски отколовшейся части кристалла, без которой нельзя исправить святыню…

Дата мировой премьеры: 1 декабря 1982
Продолжительность: ~01:33:06
Качество видео: BDRip
Перевод: Профессиональный (многоголосый, закадровый)
Субтитры: Английские (вшитые, отключаемые)
Видео: MPEG-4 AVC/H.264, 1280x544, ~6079 Кбит/сек
Аудио 1: AC3, 448 Kbps, 6 channels, 48.0 KHz [Русский]
Аудио 2: AC3, 640 Kbps, 6 channels, 48.0 KHz [Английский]

MediaInfo:

Общее
Уникальный идентификатор : 209132476020247374518358662150792104860 (0x9D55732582D79837A4FBB2BAD56F4B9C)
Полное имя : The Dark Crystal[1982] [BDRip 720p].mkv
Формат : Matroska
Версия формата : Version 2
Размер файла : 4,66 Гбайт
Продолжительность : 1 ч. 33 м.
Общий поток : 7169 Кбит/сек
Дата кодирования : UTC 2009-06-23 06:27:04
Программа кодирования : mkvmerge v2.9.7 ('Tenderness') built on Jul 1 2009 18:43:35
Библиотека кодирования : libebml v0.7.7 + libmatroska v0.8.1
Видео
Идентификатор : 1
Формат : AVC
Формат/Информация : Advanced Video Codec
Профиль формата : [email protected]
Параметр CABAC формата : Да
Параметр ReFrames формата : 5 кадров
Идентификатор кодека : V_MPEG4/ISO/AVC
Продолжительность : 1 ч. 33 м.
Битрейт : 6079 Кбит/сек
Ширина : 1280 пикселей
Высота : 544 пикселя
Соотношение сторон : 2,35:1
Частота кадров : 23,976 кадра/сек
Цветовое пространство : YUV
Субдискретизация насыщенности : 4:2:0
Битовая глубина : 8 бит
Тип развёртки : Прогрессивная
Бит/(Пиксели*Кадры) : 0.364
Размер потока : 3,86 Гбайт (83%)
Библиотека кодирования : x264 core 72 r1235 448b138
Настройки программы : cabac=1 / ref=5 / deblock=1:0:0 / analyse=0x3:0x113 / me=umh / subme=7 / psy=1 / psy_rd=1.0:0.0 / mixed_ref=1 / me_range=16 / chroma_me=1 / trellis=1 / 8x8dct=1 / cqm=0 / deadzone=21,11 / chroma_qp_offset=-2 / threads=6 / nr=0 / decimate=1 / mbaff=0 / bframes=3 / b_pyramid=1 / b_adapt=1 / b_bias=0 / direct=1 / wpredb=1 / keyint=250 / keyint_min=25 / scenecut=40 / rc=2pass / mbtree=0 / bitrate=6079 / ratetol=1.0 / qcomp=0.60 / qpmin=10 / qpmax=51 / qpstep=4 / cplxblur=20.0 / qblur=0.5 / ip_ratio=1.40 / pb_ratio=1.30 / aq=1:1.00
Язык : English
Default : Да
Forced : Нет
Аудио #1
Идентификатор : 2
Формат : AC-3
Формат/Информация : Audio Coding 3
Расширение режима : CM (complete main)
Параметр Endianness формата : Big
Идентификатор кодека : A_AC3
Продолжительность : 1 ч. 33 м.
Вид битрейта : Постоянный
Битрейт : 448 Кбит/сек
Каналы : 6 каналов
Расположение каналов : Front: L C R, Side: L R, LFE
Частота : 48,0 КГц
Битовая глубина : 16 бит
Метод сжатия : С потерями
Размер потока : 298 Мбайт (6%)
Язык : Russian
Default : Да
Forced : Нет
Аудио #2
Идентификатор : 3
Формат : AC-3
Формат/Информация : Audio Coding 3
Расширение режима : CM (complete main)
Параметр Endianness формата : Big
Идентификатор кодека : A_AC3
Продолжительность : 1 ч. 33 м.
Вид битрейта : Постоянный
Битрейт : 640 Кбит/сек
Каналы : 6 каналов
Расположение каналов : Front: L C R, Side: L R, LFE
Частота : 48,0 КГц
Битовая глубина : 16 бит
Метод сжатия : С потерями
Размер потока : 426 Мбайт (9%)
Язык : English
Default : Нет
Forced : Нет
Текст
Идентификатор : 4
Формат : UTF-8
Идентификатор кодека : S_TEXT/UTF8
Идентификатор кодека/Информация : UTF-8 Plain Text
Язык : English
Default : Да
Forced : Нет
-Скриншоты:


Смотреть онлайн


[trackeroc.org].29296.torrent 
Torrent: Registered   [ 2019-10-07 21:04 ]

Скачать торрент

13 KB

Status: checked
Completed: 16 times
Size: 4.66 GB
 

Admin (08-окт-19)
Similar torrent
Forum Topic Author Size
Зарубежные Мультсериалы Тёмный кристалл: Эпоха сопротивления / The Dark Crystal: Age of Resistance (2019) WEB-DLRip (сезон 1, серии 1-10 из 10) Пифагор Angel 17.88 GB
Фантастика ,Фэнтези Люди Икс: Тёмный Феникс / Dark Phoenix (2019) BDRip Admin 1.47 GB
Квесты, я ищу, Поиск предметов, Hidden Object Sable Maze 7: Nightmare Shadows / Темный лабиринт 7: Тени кошмара [RUS / ENG] (2017) Admin 1.12 GB
Квесты, я ищу, Поиск предметов, Hidden Object Dark Realm 4. Guardian Of Flames Collectors Edition / Темный мир 4: Хранитель пламени [RUS / ENG] (2017) Admin 917 MB

_________________
[Profile] [PM]
Display posts from previous:    
Reply to topic

The time now is: Today 21:12

All times are GMT + 4 Hours



You cannot post new topics in this forum
You cannot reply to topics in this forum
You cannot edit your posts in this forum
You cannot delete your posts in this forum
You cannot vote in polls in this forum
You cannot attach files in this forum
You can download files in this forum